Два полета Юрия Гагарина [2013, документальный, SATRip]

Ответить на тему
Статистика раздачи
Размер:  178 MB   |    Зарегистрирован:  4 года 1 месяц   |    Скачан:  42 раза

Полного источника не было: 2 года 8 месяцев

   
 
Автор Сообщение

kiotox ®

Пол: Не указан

Стаж: 2 года 8 месяцев

Сообщений: 1411539

Создавать темы 22-Сен-2013 05:53

[Цитировать]

Два полета Юрия Гагарина
Год выпуска: 2013
Страна: Россия
Жанр: документальный
Продолжительность: 00:23:36
Перевод: Не требуется
Описание: Юрия Гагарина знают во всем мире. 12 апреля 1961 года 27-ми летний пилот ВВС СССР стал первым человеком, совершившим полет в космос. 108 минут, полных драматизма: сбой в передаче данных, неполадки в работе антенн и тормозной системы, проблемы при разъединении модулей. Несмотря на трудности, Первый космонавт выполнил поставленную задачу, совершив огромный прорыв для всего человечества. Солнечная улыбка Гагарина стала одним из символов СССР. Но 27 марта 1968 года произошла трагедия, и звезда Юрия Гагарина погасла навсегда.
качество: SATRip
формат: AVI
Видео: Xvid 640x480 25fps 919 Kbps
Аудио: MP3 48000Hz stereo 128kbps

MediaInfo

General
Complete name : C:\Documents and Settings\User\Мои документы\Два полета Юрия Гагарина.avi
Format : AVI
Format/Info : Audio Video Interleave
File size : 178 MiB
Duration : 23mn 36s
Overall bit rate : 1 057 Kbps
Writing application : VirtualDubMod 1.5.10.3 | www.virtualdub-fr.org || (build 2550/release)
Writing library : VirtualDubMod build 2550/release
Video
ID : 0
Format : MPEG-4 Visual
Format profile : Advanced Simple@L5
Format settings, BVOP : 2
Format settings, QPel : No
Format settings, GMC : No warppoints
Format settings, Matrix : Default (H.263)
Codec ID : XVID
Codec ID/Hint : XviD
Duration : 23mn 36s
Bit rate : 919 Kbps
Width : 640 pixels
Height : 480 pixels
Display aspect ratio : 4:3
Frame rate : 25.000 fps
Color space : YUV
Chroma subsampling : 4:2:0
Bit depth : 8 bits
Scan type : Progressive
Compression mode : Lossy
Bits/(Pixel*Frame) : 0.120
Stream size : 155 MiB (87%)
Writing library : XviD 1.2.1 (UTC 2008-12-04)
Audio
ID : 1
Format : MPEG Audio
Format version : Version 1
Format profile : Layer 3
Codec ID : 55
Codec ID/Hint : MP3
Duration : 23mn 36s
Bit rate mode : Constant
Bit rate : 128 Kbps
Channel count : 2 channels
Sampling rate : 48.0 KHz
Compression mode : Lossy
Stream size : 21.6 MiB (12%)
Alignment : Aligned on interleaves
Interleave, duration : 40 ms (1.00 video frame)
Interleave, preload duration : 504 ms
Writing library : LAME3.99r
Encoding settings : -m s -V 4 -q 2 -lowpass 17 -b 128

Скриншоты

[torrentux.pl].t4688174.torrent 
Торрент: Зарегистрирован   [ 2012-12-26 08:53 ]
Скачать
Статус: проверено
Скачан: 42 раз
Размер: 178 MB
 
[Профиль] [ЛС]
Быстрый ответ

Имя:

         ?
Для отправки сообщений необходимо включить JavaScript
Показать сообщения:    
Ответить на тему

Текущее время: 20-Фев 00:01

Часовой пояс: UTC + 3



Вы можете начинать темы
Вы можете отвечать на сообщения
Вы можете редактировать свои сообщения
Вы не можете удалять свои сообщения
Вы не можете голосовать в опросах
Вы можете прикреплять файлы к сообщениям
Вы можете скачивать файлы
Яндекс.Метрика