Конченые люди? / Irrecuperables? / Irrécupérables? (Рафаэль Эллиг Ренье / Raphaelle Aellig Regnier) [2011, документальный, DVB] Original (Fre) + Sub (ru hard)

Ответить на тему
Статистика раздачи
Размер:  966 MB   |    Зарегистрирован:  3 года 9 месяцев   |    Скачан:  9 раз

Полного источника не было: 2 года 8 месяцев

   
 
Автор Сообщение

kiotox ®

Пол: Не указан

Стаж: 2 года 8 месяцев

Сообщений: 1411539

Создавать темы 22-Сен-2013 07:41

[Цитировать]

Конченые люди?
Irrécupérables?- Год выпуска: 2011
Страна: Швейцария, Франция
Жанр: документальный
Продолжительность: 00:50:13
Перевод: Субтитры (перевод К. Семенюк, Éclair Group)
Русские субтитры: есть
Режиссер: Рафаэль Эллиг Ренье / Raphaëlle Aellig RégnierОписание: Люди, совершившие преступление, – могут ли они снова стать нормальными членами общества?
В молодости Язид Керфи был осужден за кражу автомобиля и вооруженное ограбление. Сегодня он работает консультантом по предупреждению городской преступности. Он решил создать место встречи для молодых людей на площади Chêne-Pointu в Клиши-су-Буа. Частота совершения преступлений в Сена-Сен-Дени и Клиши-су-Буа, является одной из самых высоких во Франции. Это обусловлено высоким уровнем безработицы. От 20 % до 40 % молодых людей в возрасте до 25-и лет не имеют постоянной работы.
Бывший уголовник участвует в дискуссиях с заключенными тюрьмы Флери-Мерожи (самой крупной тюрьмы в Европе), чтобы помочь им после освобождения вернуться к нормальной жизни и исключить рецидив.
Доп. информация: Запись со спутника (телеканал TV5MONDE).
Сэмпл: http://multi-up.com/905658
качество: DVB
формат: MPEG-PS (См. при проблемах с просмотром видео)
Видео: MPEG Video 2, 720x576@1024x576 (16:9), 25 fps, ~2439 kbps avg, 0.235 bit/pixel
Аудио: Французский (48 kHz, MPEG Audio 2, 2 ch, ~192.00 kbps avg)
Формат субтитров: hardsub (неотключаемые)

MediaInfo

Полное имя                               : H:\My Torrents\[apreder]Irrecuperables(2011)DVB.mpg
Формат : MPEG-PS
Размер файла : 966 Мбайт
Продолжительность : 50 м.
Режим общего битрейта : Переменный
Общий поток : 2685 Кбит/сек
Видео
Идентификатор : 224 (0xE0)
Формат : MPEG Video
Версия формата : Version 2
Профиль формата : Main@Main
Параметр BVOP формата : Да
Параметр матрицы формата : Выборочная
Параметр GOP формата : M=3, N=24
Продолжительность : 50 м.
Вид битрейта : Переменный
Битрейт : 2439 Кбит/сек
Ширина : 720 пикселей
Высота : 576 пикселей
Соотношение сторон : 16:9
Частота кадров : 25,000 кадров/сек
Стандарт вещания : PAL
Цветовое пространство : YUV
Субдискретизация насыщенности : 4:2:0
Битовая глубина : 8 бит
Тип развёртки : Прогрессивная
Порядок развёртки : Верхнее поле первое
Метод сжатия : С потерями
Бит/(Пиксели*Кадры) : 0.235
TimeCode_FirstFrame : 00:00:00:00
TimeCode_Source : Group of pictures header
Размер потока : 878 Мбайт (91%)
Аудио
Идентификатор : 192 (0xC0)
Формат : MPEG Audio
Версия формата : Version 1
Профиль формата : Layer 2
Продолжительность : 50 м.
Вид битрейта : Постоянный
Битрейт : 192 Кбит/сек
Каналы : 2 канала
Частота : 48,0 КГц
Метод сжатия : С потерями
Размер потока : 69,1 Мбайт (7%)

Скриншоты


Скриншоты - резерв


-980/962√
[torrentux.pl].t4688247.torrent 
Торрент: Зарегистрирован   [ 2013-04-25 10:41 ]
Скачать
Статус: проверено
Скачан: 9 раз
Размер: 966 MB
 
[Профиль] [ЛС]
Быстрый ответ

Имя:

         ?
Для отправки сообщений необходимо включить JavaScript
Показать сообщения:    
Ответить на тему

Текущее время: 20-Фев 00:03

Часовой пояс: UTC + 3



Вы можете начинать темы
Вы можете отвечать на сообщения
Вы можете редактировать свои сообщения
Вы не можете удалять свои сообщения
Вы не можете голосовать в опросах
Вы можете прикреплять файлы к сообщениям
Вы можете скачивать файлы
Яндекс.Метрика