Цикл фильмов «Прощение» / Цикл фильмов «Прощення» (1 сезон, 1 выпуск - Скнилив) (Дмитрий Карпачов) [2013, документальный, IPTVRemux]

Ответить на тему
Статистика раздачи
Размер:  4.75 GB   |    Зарегистрирован:  3 года 9 месяцев   |    Скачан:  56 раз

Полного источника не было: 2 года 9 месяцев

   
 
Автор Сообщение

kiotox ®

Пол: Не указан

Стаж: 2 года 7 месяцев

Сообщений: 1411539

Создавать темы 22-Сен-2013 19:29

[Цитировать]

Цикл фильмов «Прощение» / Цикл фильмов «Прощення» (1 сезон, 1 выпуск - Скнилив)
Год выпуска: 2013
Страна: Украина
Жанр: документальный
Продолжительность: 02:09:36
Перевод: Не требуется
Русские субтитры: нет
Режиссер: Дмитрий Карпачов
Описание: «Прощення» - проект собственного производства телеканала СТБ.
Эта программа о людях, жизнь которых навсегда поделена на «ДО» и «ПОСЛЕ». Раскаиваться – не означает получить прощение, а не вспоминать – не означает простить. Это проект о разрушенных судьбах, о людях, которые разучились жить, о людях, которые добровольно похоронили себя вместе с погибшими. Лишь после прощения, их жизнь снова сможет обрести краски.
В ходе программы, ведущий знакомит зрителей с семьей, в которой произошла трагедия. Герои не в силах самостоятельно справиться с горем, а главное, в них живет ненависть к человеку, который стал причиной трагедии. Посвятив всю свою жизнь погибшему, они не замечают живых. Ежедневное проживание горя и ненависть к виновнику трагедии убивает их, но они отказываются это понимать. Ведущий показывает героям, что жить надо не во имя мертвых, а ради живых. Следуя рекомендациям психолога, семья постепенно возвращается к жизни. Порой они делают невероятные усилия над собой, чтобы начать новую жизнь, но в конце их ждет самое сложное – встреча с человеком, который стал причиной их страданий и которого они ненавидят до сих пор.
Можно ли оправдать убийцу единственного сына или простить смерть беременной жены? Телезрители становятся свидетелями мучительного выбора, перед которым оказываются герои: простить и жить дальше, или добровольно убивать себя, продолжая ненавидеть.
качество: IPTVRemux
формат: MPG
Видео: MPEG-2 Video, 720x576 (1.333:1), 25.000 fps, 3348 Кбит/сек
Аудио: 48,0 КГц, MPEG-1 Audio layer 2 2 канала, 192 Кбит/сек

Список выпусков/серий

1 выпуск Прощення - Пробачити, щоби жити + Пост-шоу Один за всех (22.09.13)

Скриншоты

MediaInfo

Общее
Полное имя : H:\СТБ файлы youtube\Прощення Media Portal reliz\01. Proschennya Skniliv Media Portal reliz.mpg
Формат : MPEG-PS
Размер файла : 3,27 Гбайт
Продолжительность : 2 ч. 9 м.
Режим общего битрейта : Переменный
Общий поток : 3612 Кбит/сек
Видео
Идентификатор : 224 (0xE0)
Формат : MPEG Video
Версия формата : Version 2
Профиль формата : Main@Main
Параметр BVOP формата : Да
Параметр матрицы формата : Выборочная
Параметр GOP формата : M=1, N=25
Продолжительность : 2 ч. 9 м.
Вид битрейта : Переменный
Битрейт : 3348 Кбит/сек
Максимальный битрейт : 15,0 Мбит/сек
Ширина : 720 пикселей
Высота : 576 пикселей
Соотношение сторон : 4:3
Частота кадров : 25,000 кадров/сек
Стандарт вещания : PAL
Цветовое пространство : YUV
Субдискретизация насыщенности : 4:2:0
Битовая глубина : 8 бит
Тип развёртки : Чересстрочная
Порядок развёртки : Верхнее поле первое
Метод сжатия : С потерями
Бит/(Пиксели*Кадры) : 0.323
Размер потока : 3,03 Гбайт (93%)
Аудио
Идентификатор : 192 (0xC0)
Формат : MPEG Audio
Версия формата : Version 1
Профиль формата : Layer 2
Продолжительность : 2 ч. 9 м.
Вид битрейта : Постоянный
Битрейт : 192 Кбит/сек
Каналы : 2 канала
Частота : 48,0 КГц
Метод сжатия : С потерями
Размер потока : 178 Мбайт (5%)
[torrentux.pl].t4688965.torrent 
Торрент: Зарегистрирован   [ 2013-03-26 22:29 ]
Скачать
Статус: проверено
Скачан: 56 раз
Размер: 4.75 GB
 
[Профиль] [ЛС]
Быстрый ответ

Имя:

         ?
Для отправки сообщений необходимо включить JavaScript
Показать сообщения:    
Ответить на тему

Текущее время: 18-Янв 04:48

Часовой пояс: UTC + 3



Вы можете начинать темы
Вы можете отвечать на сообщения
Вы можете редактировать свои сообщения
Вы не можете удалять свои сообщения
Вы не можете голосовать в опросах
Вы можете прикреплять файлы к сообщениям
Вы можете скачивать файлы
Яндекс.Метрика