Воскресный вечер с Владимиром Соловьевым. Эфир 22.09.2013 [2013, Документальный, HDTV 1080i]

Страницы :  1, 2  След.

Ответить на тему
Статистика раздачи
Размер:  6.46 GB   |    Зарегистрирован:  3 года 8 месяцев   |    Скачан:  0 раз

Полного источника не было: 1 год

   
 
Автор Сообщение

kiotox ®

Пол: Не указан

Стаж: 2 года 7 месяцев

Сообщений: 1411539

Создавать темы 22-Сен-2013 21:56

[Цитировать]

Воскресный вечер с Владимиром Соловьевым. Эфир 22.09.2013
Год выпуска: 2013
Страна: Россия
Жанр: Документальный
Продолжительность: 01:49:28
Перевод: Не требуется
Описание: "Мы ставили задачу сделать программу для умного, неравнодушного зрителя, которая позволит обсуждать актуальные проблемы в разных форматах: от интервью "один на один" до "круглого стола". Надеемся, она будет такой же острой, как политическое ток-шоу "Поединок". Но если в "Поединке" сталкиваются две полярные точки зрения, то здесь мы намерены представить более широкий спектр мнений: ведь в обществе обсуждается множество тем, которые вызывают не только однозначные реакции", - сказал автор проекта Владимир Соловьев.
В этом выпуске:
Самое актуальное не неделе.
Доп. информация: Релиз -

Рип чистый. Без посторонних надписей. Выкладывается как есть.
Качество: HDTV 1080i
Контейнер: TS
Видео кодек: AVC
Аудио кодек: AC3
Видео: 1920x1080 (16:9) 25.000 fps 7 838 Kbps, 0.151 bit/pixel
Аудио: MPEG Audio 48000Hz stereo 192 Кбит/сек

Скриншоты


Скринлист

MI

General
ID : 1 (0x1)
Complete name : D:\Выкладка\Воскресный вечер с Владимиром Соловьевым. Эфир 22.09.2013 (2013, Тв-шоу, Документальный, HDTV 1080i) (MYDIMKA).ts
Format : MPEG-TS
File size : 6.46 GiB
Duration : 1h 49mn
Overall bit rate mode : Variable
Overall bit rate : 8 447 Kbps
Video
ID : 2911 (0xB5F)
Menu ID : 1 (0x1)
Format : AVC
Format/Info : Advanced Video Codec
Format profile : High@L4.0
Format settings, CABAC : Yes
Format settings, ReFrames : 3 frames
Codec ID : 27
Duration : 1h 49mn
Bit rate : 7 836 Kbps
Width : 1 920 pixels
Height : 1 080 pixels
Display aspect ratio : 16:9
Frame rate : 25.000 fps
Color space : YUV
Chroma subsampling : 4:2:0
Bit depth : 8 bits
Scan type : MBAFF
Bits/(Pixel*Frame) : 0.151
Stream size : 5.99 GiB (93%)
Audio
ID : 2912 (0xB60)
Menu ID : 1 (0x1)
Format : MPEG Audio
Format version : Version 1
Format profile : Layer 2
Mode : Joint stereo
Mode extension : Intensity Stereo + MS Stereo
Codec ID : 3
Duration : 1h 49mn
Bit rate mode : Constant
Bit rate : 192 Kbps
Channel count : 2 channels
Sampling rate : 48.0 KHz
Compression mode : Lossy
Stream size : 150 MiB (2%)
Language : Russian
[torrentux.pl].t4689080.torrent 
Торрент: Зарегистрирован   [ 2013-04-26 00:56 ]
Скачать
Статус: проверено
Скачан: 0 раз
Размер: 6.46 GB
 
[Профиль] [ЛС]

Гость

Пол: Не указан

Создавать темы 03-Авг-2014 08:20 (спустя 10 месяцев 10 дней)

[Цитировать]

jukkkk
 

+79296180187

Пол: Не указан

Создавать темы 16-Авг-2014 15:14 (спустя 13 дней)

[Цитировать]

[code]
[/code][code][/code]
 

valik

Пол: Не указан

Создавать темы 17-Авг-2014 09:57 (спустя 18 часов)

[Цитировать]

[img][url][/url][/img]
Гость,
 

насик

Пол: Не указан

Создавать темы 19-Авг-2014 23:41 (спустя 2 дня 13 часов)

[Цитировать]

djn
 

vladikk

Пол: Не указан

Создавать темы 25-Авг-2014 15:59 (спустя 5 дней)

[Цитировать]

я влад все плохо
 

Гость

Пол: Не указан

Создавать темы 26-Авг-2014 14:55 (спустя 22 часа)

[Цитировать]

kak registrirovatca
 

Гость

Пол: Не указан

Создавать темы 29-Авг-2014 07:51 (спустя 2 дня 16 часов)

[Цитировать]

[code][/code][img][/img]
 

Гость

Пол: Не указан

Создавать темы 11-Сен-2014 18:59 (спустя 13 дней)

[Цитировать]

dfc cfk
 

Гость

Пол: Не указан

Создавать темы 14-Сен-2014 19:23 (спустя 3 дня)

[Цитировать]

jky
 

.::BlackStream::.

Пол: Не указан

Стаж: 2 года 2 месяца

Сообщений: 1

Создавать темы 14-Ноя-2014 08:46 (спустя 1 месяц 29 дней)

[Цитировать]

Админы дайте админку настрою трекер)
[Профиль] [ЛС]

Гость

Пол: Не указан

Создавать темы 23-Июл-2015 12:33 (спустя 8 месяцев 9 дней)

[Цитировать]

4689109djn
 

Гость

Пол: Не указан

Создавать темы 29-Авг-2015 11:52 (спустя 1 месяц 5 дней)

[Цитировать]

c57
 

rehmata

Пол: Не указан

Стаж: 10 месяцев

Сообщений: 1

Создавать темы 16-Мар-2016 13:50 (спустя 6 месяцев 18 дней)

[Цитировать]

4689103
[code]
[/code][code][/code]
[Профиль] [ЛС]

palash manna

Пол: Не указан

Стаж: 9 месяцев 30 дней

Сообщений: 1

Создавать темы 17-Мар-2016 14:23 (спустя 1 день)

[Цитировать]

ss
[Профиль] [ЛС]
Быстрый ответ

Имя:

         ?
Для отправки сообщений необходимо включить JavaScript
Показать сообщения:    
Ответить на тему

Текущее время: 17-Янв 12:09

Часовой пояс: UTC + 3



Вы можете начинать темы
Вы можете отвечать на сообщения
Вы не можете редактировать свои сообщения
Вы не можете удалять свои сообщения
Вы не можете голосовать в опросах
Вы не можете прикреплять файлы к сообщениям
Вы можете скачивать файлы
Яндекс.Метрика