Мы были в гостях. Витебск 1975 [1975, документальный, VHSRip]

Ответить на тему
Статистика раздачи
Размер:  255 MB   |    Зарегистрирован:  4 года 1 месяц   |    Скачан:  35 раз

Полного источника не было: 2 года 8 месяцев

   
 
Автор Сообщение

kiotox ®

Пол: Не указан

Стаж: 2 года 8 месяцев

Сообщений: 1411539

Создавать темы 20-Сен-2013 18:15

[Цитировать]

Мы были в гостях. Витебск 1975
Год выпуска: 1975
Страна: Венгрия
Жанр: документальный
Продолжительность: 00:22:16
Перевод: Не требуется
Русские субтитры: нет
Описание: Фильм, снятый венгерским телевидением, знакомит с красивым городом Витебском, и танцевальным ансамблем "Молодёжь".
Доп. информация: Фильм оцифрован с киноплёнки 16-мм из личной коллекции ENKVANT
качество: VHSRip
формат: AVI
Видео: XviD, 4:3, 720х544, 1559 kbps, 25 fps
Аудио: МР-3, 128 kbps, 48 kHz, 2 ch

MediaInfo

Общее
Полное имя : G:\Мы были в гостях. Витебск 1975.avi
Формат : AVI
Формат/Информация : Audio Video Interleave
Размер файла : 255 Мбайт
Продолжительность : 22 м.
Общий поток : 1597 Кбит/сек
Программа кодирования : VirtualDubMod 1.5.4.1 (build 2178/release)
Библиотека кодирования : VirtualDubMod build 2178/release
Видео
Идентификатор : 0
Формат : MPEG-4 Visual
Профиль формата : Advanced Simple@L5
Параметр BVOP формата : 1
Параметр QPel формата : Нет
Параметр GMC формата : Без точки перехода
Параметр матрицы формата : Выборочная
Идентификатор кодека : XVID
Идентификатор кодека/Подсказка : XviD
Продолжительность : 22 м.
Битрейт : 1462 Кбит/сек
Ширина : 720 пикселей
Высота : 544 пикселя
Соотношение сторон : 4:3
Частота кадров : 25,000 кадров/сек
Цветовое пространство : YUV
Субдискретизация насыщенности : 4:2:0
Битовая глубина : 8 бит
Тип развёртки : Прогрессивная
Метод сжатия : С потерями
Бит/(Пиксели*Кадры) : 0.149
Размер потока : 233 Мбайт (92%)
Библиотека кодирования : XviD 1.2.1 (UTC 2008-12-04)
Аудио
Идентификатор : 1
Формат : MPEG Audio
Версия формата : Version 1
Профиль формата : Layer 3
Режим : Joint stereo
Расширение режима : MS Stereo
Идентификатор кодека : 55
Идентификатор кодека/Подсказка : MP3
Продолжительность : 22 м.
Вид битрейта : Постоянный
Битрейт : 128 Кбит/сек
Каналы : 2 канала
Частота : 48,0 КГц
Метод сжатия : С потерями
Размер потока : 20,4 Мбайт (8%)
Выравнивание : Соединение по промежуткам
Продолжительность промежутка : 80 мс. (2,00 видеокадра)
Время предзагрузки промежутка : 504 мс.
Библиотека кодирования : LAME3.98r
Настройки программы : -m j -V 4 -q 2 -lowpass 17 -b 128

Скриншоты

, , , , , ,
[torrentux.pl].t4686852.torrent 
Торрент: Зарегистрирован   [ 2013-01-23 21:15 ]
Скачать
Статус: проверено
Скачан: 35 раз
Размер: 255 MB
 
[Профиль] [ЛС]
Быстрый ответ

Имя:

         ?
Для отправки сообщений необходимо включить JavaScript
Показать сообщения:    
Ответить на тему

Текущее время: 26-Фев 04:17

Часовой пояс: UTC + 3



Вы можете начинать темы
Вы можете отвечать на сообщения
Вы можете редактировать свои сообщения
Вы не можете удалять свои сообщения
Вы не можете голосовать в опросах
Вы можете прикреплять файлы к сообщениям
Вы можете скачивать файлы
Яндекс.Метрика