Трекки 2/ Фанаты Star Trek 2 / Trekkies 2 (Роджер Найгард / Roger Nygard) [2004, документальный, DVDRip] MVO + Original Eng + Sub Rus

Ответить на тему
Статистика раздачи
Размер:  831 MB   |    Зарегистрирован:  4 года 2 месяца   |    Скачан:  40 раз

Полного источника не было: 2 года 8 месяцев

   
 
Автор Сообщение

kiotox ®

Пол: Не указан

Стаж: 2 года 8 месяцев

Сообщений: 1411539

Создавать темы 20-Сен-2013 20:54

[Цитировать]

Трекки 2/ Фанаты Star Trek 2 / Trekkies 2 -Год выпуска: 2004
Страна: США
Жанр: документальный
Продолжительность: 01:33:08
Перевод: Любительский (многоголосый закадровый)
Русские субтитры: есть
Оригинальная аудиодорожка: английская-Режиссер: Роджер Найгард / Roger Nygard-В ролях: Вон Армстронг, Ричард Арнольд, Роберт Мейер Барнетт, Кейси Биггз, Джон Биллингсли, Брэннон Брага, Лолита Фэтджо, Лесли Фиш, Майкл Форест , Дэвид А. Гудман и другие.-Описание: Дэниз Кросби решает взглянуть ещё раз на любителей Стар Трека, но теперь с большим вниманием к национальности.-Перевод: ArcAda
Озвучивали: Jurich (Павел Абрамкин), Марина Netlife, Molodoyd, Persona99
Монтаж и сведение звука: Jurich (Павел Абрамкин)-СЭМПЛ-Трекки/Trekkies-Качество видео: DVDRip
Формат видео: AVI
Видео: XviD, 512x384, 4:3, 914 Kbps, 29.970 fps
Аудио: MPEG Layer 3, 192 Kbps, 48.0 KHz, 2 channels [MVO]
Аудио 2: MPEG Layer 3, 121 Kbps, 48.0 KHz, 2 channels [ENG]
Формат субтитров: softsub (SRT)-

MediaInfo

Format : AVI
Format/Info : Audio Video Interleave
File size : 831 MiB
Duration : 1h 33mn
Overall bit rate : 1 247 Kbps
Writing application : VirtualDubMod 1.5.10.1 (build 2366/release)
Writing library : VirtualDubMod build 2366/release
Video
ID : 0
Format : MPEG-4 Visual
Format profile : Advanced Simple@L5
Format settings, BVOP : 1
Format settings, QPel : No
Format settings, GMC : No warppoints
Format settings, Matrix : Custom
Codec ID : XVID
Codec ID/Hint : XviD
Duration : 1h 33mn
Bit rate : 914 Kbps
Width : 512 pixels
Height : 384 pixels
Display aspect ratio : 4:3
Frame rate : 29.970 fps
Color space : YUV
Chroma subsampling : 4:2:0
Bit depth : 8 bits
Scan type : Progressive
Compression mode : Lossy
Bits/(Pixel*Frame) : 0.155
Stream size : 609 MiB (73%)
Writing library : XviD 1.0.1 (UTC 2004-06-05)
Audio #1
ID : 1
Format : MPEG Audio
Format version : Version 1
Format profile : Layer 3
Mode : Joint stereo
Codec ID : 55
Codec ID/Hint : MP3
Duration : 1h 33mn
Bit rate mode : Constant
Bit rate : 192 Kbps
Channel(s) : 2 channels
Sampling rate : 48.0 KHz
Compression mode : Lossy
Stream size : 128 MiB (15%)
Alignment : Aligned on interleaves
Interleave, duration : 33 ms (1.00 video frame)
Interleave, preload duration : 504 ms
Language : English
Audio #2
ID : 2
Format : MPEG Audio
Format version : Version 1
Format profile : Layer 3
Mode : Joint stereo
Mode extension : MS Stereo
Codec ID : 55
Codec ID/Hint : MP3
Duration : 1h 33mn
Bit rate mode : Variable
Bit rate : 121 Kbps
Nominal bit rate : 128 Kbps
Channel(s) : 2 channels
Sampling rate : 48.0 KHz
Compression mode : Lossy
Stream size : 80.7 MiB (10%)
Alignment : Aligned on interleaves
Interleave, duration : 24 ms (0.72 video frame)
Interleave, preload duration : 152 ms
Writing library : LAME3.90.
Encoding settings : -m j -V 4 -q 2 -lowpass 17.6 --abr 128

Скриншоты


[torrentux.pl].t4686996.torrent 
Торрент: Зарегистрирован   [ 2012-11-24 23:54 ]
Скачать
Статус: проверено
Скачан: 40 раз
Размер: 831 MB
 
[Профиль] [ЛС]
Быстрый ответ

Имя:

         ?
Для отправки сообщений необходимо включить JavaScript
Показать сообщения:    
Ответить на тему

Текущее время: 20-Фев 00:03

Часовой пояс: UTC + 3



Вы можете начинать темы
Вы можете отвечать на сообщения
Вы можете редактировать свои сообщения
Вы не можете удалять свои сообщения
Вы не можете голосовать в опросах
Вы можете прикреплять файлы к сообщениям
Вы можете скачивать файлы
Яндекс.Метрика