Дикая Аляска / National Geographic: Wildes Alaska (Брайан Армстронг / Brian Armstrong) [2012, документальный, BDRip 1080p]

Ответить на тему
Статистика раздачи
Размер:  5.78 GB   |    Зарегистрирован:  3 года 7 месяцев   |    Скачан:  120 раз

Полного источника не было: 2 года 8 месяцев

   
 
Автор Сообщение

kiotox ®

Пол: Не указан

Стаж: 2 года 7 месяцев

Сообщений: 1411539

Создавать темы 21-Сен-2013 08:07

[Цитировать]

Дикая Аляска / National Geographic: Wildes Alaska -Год выпуска: 2012
Страна: Германия | WVG Medien GmbH
Жанр: документальный
Продолжительность: 00:45:06
Перевод: Профессиональный одноголосый (Дмитрий Полиновский)
Режиссер: Брайан Армстронг / Brian Armstrong
Русские субтитры: нет-Описание: Путешествуйте с National Geographic в суровых условиях Аляски и посетите места обитания множество великолепных и разнообразных видов животных и растений, нашедших здесь свой дом.-Тип релиза: BDRip 1080p
Формат: MKV
Видео: 1920x1080 at 25.000 fps, x264@L4.1, 16.3 Mbps
Аудио 1: Russian: 48 kHz/16-bit, AC3, 2.0 (L,R) ch, ~192 kbps
Аудио 2: English: 48 kHz/24-bit, DTS, 3/2 (L,C,R,l,r) + LFE ch, ~1509 kbps
Субтитры: нет
Сэмпл-

MediaInfo

Общее
Уникальный идентификатор : 236826773587022487059915025721867578028 (0xB22B2D6FE0FE74BF91AAEF48ECAF2AAC)
Полное имя : D:\Фильмы\NG.Wildes.Alaska.2012.1080p.BluRay.Rus.Eng.HDCLUB.mkv
Формат : Matroska
Версия формата : Version 4 / Version 2
Размер файла : 5,78 Гбайт
Продолжительность : 45 м.
Общий поток : 18,3 Мбит/сек
Дата кодирования : UTC 2013-09-18 17:59:44
Программа кодирования : mkvmerge v6.3.0 ('You can't stop me!') built on Jun 28 2013 20:09:41
Библиотека кодирования : libebml v1.3.0 + libmatroska v1.4.0
Видео
Идентификатор : 1
Формат : AVC
Формат/Информация : Advanced Video Codec
Профиль формата : High@L4.1
Параметр CABAC формата : Да
Параметр ReFrames формата : 4 кадра
Идентификатор кодека : V_MPEG4/ISO/AVC
Продолжительность : 45 м.
Битрейт : 16,3 Мбит/сек
Ширина : 1920 пикселей
Высота : 1080 пикселей
Соотношение сторон : 16:9
Режим частоты кадров : Постоянный
Частота кадров : 25,000 кадров/сек
Цветовое пространство : YUV
Субдискретизация насыщенности : 4:2:0
Битовая глубина : 8 бит
Тип развёртки : Прогрессивная
Бит/(Пиксели*Кадры) : 0.314
Размер потока : 5,13 Гбайт (89%)
Заголовок : National Geographic. Wildes Alaska (2012) - realise for HDCLUB
Библиотека кодирования : x264 core 133 r2334 a3ac64b
Настройки программы : cabac=1 / ref=4 / deblock=1:-3:-3 / analyse=0x3:0x113 / me=umh / subme=10 / psy=1 / psy_rd=1.00:0.00 / mixed_ref=1 / me_range=48 / chroma_me=1 / trellis=2 / 8x8dct=1 / cqm=0 / deadzone=21,11 / fast_pskip=1 / chroma_qp_offset=-2 / threads=6 / lookahead_threads=1 / sliced_threads=0 / nr=0 / decimate=1 / interlaced=0 / bluray_compat=0 / constrained_intra=0 / bframes=3 / b_pyramid=2 / b_adapt=2 / b_bias=0 / direct=1 / weightb=1 / open_gop=0 / weightp=2 / keyint=250 / keyint_min=25 / scenecut=40 / intra_refresh=0 / rc_lookahead=65 / rc=crf / mbtree=0 / crf=17.0 / qcomp=0.60 / qpmin=0 / qpmax=69 / qpstep=4 / vbv_maxrate=50000 / vbv_bufsize=62500 / crf_max=0.0 / nal_hrd=none / ip_ratio=1.40 / pb_ratio=1.30 / aq=1:0.80
Язык : English
Default : Да
Forced : Нет
Коэффициенты матрицы : BT.709
Аудио #1
Идентификатор : 2
Формат : AC-3
Формат/Информация : Audio Coding 3
Расширение режима : CM (complete main)
Параметр Endianness формата : Big
Идентификатор кодека : A_AC3
Продолжительность : 45 м.
Вид битрейта : Постоянный
Битрейт : 192 Кбит/сек
Каналы : 2 канала
Расположение каналов : Front: L R
Частота : 48,0 КГц
Битовая глубина : 16 бит
Метод сжатия : С потерями
Размер потока : 61,9 Мбайт (1%)
Заголовок : 48KHz/16bit, AC3, 2.0 (L,R) ch, 192 kbps - Профессиональный oдноголосый, Дмитрий Полиновский
Язык : Russian
Default : Да
Forced : Нет
Аудио #2
Идентификатор : 3
Формат : DTS
Формат/Информация : Digital Theater Systems
Режим : 16
Параметр Endianness формата : Big
Идентификатор кодека : A_DTS
Продолжительность : 45 м.
Вид битрейта : Постоянный
Битрейт : 1509 Кбит/сек
Каналы : 6 каналов
Расположение каналов : Front: L C R, Side: L R, LFE
Частота : 48,0 КГц
Битовая глубина : 24 бит
Метод сжатия : С потерями
Размер потока : 487 Мбайт (8%)
Заголовок : 48KHz/24bit, DTS, 3/2 (L,C,R,l,r) + LFE ch, 1509 kbps - English
Язык : English
Default : Нет
Forced : Нет
Меню
00:00:00.000 : en:
00:03:48.880 : en:
00:08:38.840 : en:
00:11:59.920 : en:
00:14:41.560 : en:
00:17:25.720 : en:
00:23:58.720 : en:
00:27:54.560 : en:
00:32:37.680 : en:
00:36:31.640 : en:
00:39:30.960 : en:
00:43:01.800 : en:
00:45:05.640 : en:

Скриншоты

[torrentux.pl].t4687240.torrent 
Торрент: Зарегистрирован   [ 2013-05-24 11:07 ]
Скачать
Статус: проверено
Скачан: 120 раз
Размер: 5.78 GB
 
[Профиль] [ЛС]
Быстрый ответ

Имя:

         ?
Для отправки сообщений необходимо включить JavaScript
Показать сообщения:    
Ответить на тему

Текущее время: 18-Янв 04:45

Часовой пояс: UTC + 3



Вы можете начинать темы
Вы можете отвечать на сообщения
Вы можете редактировать свои сообщения
Вы не можете удалять свои сообщения
Вы не можете голосовать в опросах
Вы можете прикреплять файлы к сообщениям
Вы можете скачивать файлы
Яндекс.Метрика