Academia. Загадка хамбо-ламы Итигэлова (Галина Ершова) [2013, документальный, DVDRip]

Ответить на тему
Статистика раздачи
Размер:  703 MB   |    Зарегистрирован:  3 года 11 месяцев   |    Скачан:  120 раз

Полного источника не было: 10 дней

   
 
Автор Сообщение

kiotox ®

Пол: Не указан

Стаж: 2 года 7 месяцев

Сообщений: 1411539

Создавать темы 21-Сен-2013 09:09

[Цитировать]

Academia. Загадка хамбо-ламы Итигэлова
Год выпуска: 2013
Страна: Россия
Жанр: документальный
Продолжительность: 00:44:02
Перевод: Не требуется
Режиссер: Галина Ершова
Описание: Чудо не противоречит законам природы, а только нашим о них представлениям. 15 июня 1927 года Хамбо-лама Даша-Доржо Итигэлов сел в позу лотоса и собрал учеников. Находясь в состоянии медитации, он, согласно буддийскому учению, ушел в нирвану. Итигэлов был похоронен в кедровом кубе в том же положении (в позе лотоса), в котором находился в момент ухода.
Доп. информация: После революции в Советском союзе начались черные дни для всех религиозных конфессий, в том числе и для буддизма. Многих людей которые знали о Хамбо-ламе сослали или расстреляли и о Итигэлове почти все забыли, кроме нескольких человек. Через 75 лет после погребения Итигэлов велел себя достать из-под земли. 75 лет-дата не случайная, это возраст просветления Будды. В 2002 году, по прошествию назначенного срока, было принято решение достать тело. При открытии короба в нем обнаружили нетленное тело пожилого человека. Его осмотр показал, что поверхность туловища мягкая и сохранила гибкость, вес также сохранился как у живого, в местах где содралась кожа появилась кровь, что совершенно невероятно для тела которое находилось в погребении 75 лет.
качество: DVDRip
формат: AVI
Видео: 768x576 (1.33:1), 25 fps, H.264 ~1964 kbps
Аудио: 48 kHz, MPEG, 2 ch, ~256.00 kbps

MediaInfo

General
Complete name : Загадка хамбо-ламы Итигэлова (2013).avi
Format : AVI
Format/Info : Audio Video Interleave
File size : 703 MiB
Duration : 44mn 2s
Overall bit rate mode : Variable
Overall bit rate : 2 233 Kbps
Writing application : Lavf52.94.0
Video
ID : 0
Format : AVC
Format/Info : Advanced Video Codec
Format profile : Main@L3.1
Format settings, CABAC : Yes
Format settings, ReFrames : 1 frame
Format settings, GOP : M=1, N=15
Codec ID : H264
Duration : 44mn 2s
Bit rate mode : Variable
Bit rate : 1 964 Kbps
Maximum bit rate : 5 879 Kbps
Width : 768 pixels
Height : 576 pixels
Display aspect ratio : 4:3
Frame rate : 25.000 fps
Color space : YUV
Chroma subsampling : 4:2:0
Bit depth : 8 bits
Scan type : Progressive
Bits/(Pixel*Frame) : 0.178
Stream size : 619 MiB (88%)
Audio
ID : 1
Format : MPEG Audio
Format version : Version 1
Format profile : Layer 3
Mode : Joint stereo
Mode extension : MS Stereo
Codec ID : 55
Codec ID/Hint : MP3
Duration : 44mn 2s
Bit rate mode : Constant
Bit rate : 256 Kbps
Channel(s) : 2 channels
Sampling rate : 48.0 KHz
Compression mode : Lossy
Stream size : 80.6 MiB (11%)
Alignment : Aligned on interleaves
Interleave, duration : 24 ms (0.60 video frame)
Writing library : LAME3.98.4

Скриншоты



[torrentux.pl].t4687312.torrent 
Торрент: Зарегистрирован   [ 2013-01-24 12:09 ]
Скачать
Статус: проверено
Скачан: 120 раз
Размер: 703 MB
 
[Профиль] [ЛС]
Быстрый ответ

Имя:

         ?
Для отправки сообщений необходимо включить JavaScript
Показать сообщения:    
Ответить на тему

Текущее время: 18-Янв 04:45

Часовой пояс: UTC + 3



Вы можете начинать темы
Вы можете отвечать на сообщения
Вы можете редактировать свои сообщения
Вы не можете удалять свои сообщения
Вы не можете голосовать в опросах
Вы можете прикреплять файлы к сообщениям
Вы можете скачивать файлы
Яндекс.Метрика