Голливуд / Hollywood (Кевин Браунлоу, Дэвид Гилл / Kevin Brownlow, David Gill) (2 из 13 серий) [1980, документальный, VHSRip]

Ответить на тему
Статистика раздачи
Размер:  1.45 GB   |    Зарегистрирован:  3 года 6 месяцев   |    Скачан:  30 раз

Полного источника не было: 1 год 4 месяца

   
 
Автор Сообщение

kiotox ®

Пол: Не указан

Стаж: 2 года 7 месяцев

Сообщений: 1411539

Создавать темы 22-Сен-2013 01:13

[Цитировать]

Голливуд / Hollywood
Год выпуска: 1980
Страна: Британия
Жанр: документальный
Продолжительность: 2 x 52 мин (в перспективе - 13 x 52 мин)
Перевод: Профессиональный (двухголосый закадровый) + титры .srt (для оригинальных титров / интертитров)
Режиссер: Кевин Браунлоу, Дэвид Гилл / Kevin Brownlow, David Gill
Описание: Сериал состоит из 13 серий, каждая из которых показывает какой-то аспект истории Голливуда. Авторы сериала - британские историки кино Кевин Браунлоу и Дэвид Гилл - скрупулёзно и вдумчиво раскрывают перед зрителем историю и особенности немого кино, как искусства, не обходя вниманием и вопросы кинопроизводства того времени. В сериале используются интервью с участниками съемок того времени, активно иллюстрируемыми фрагментами фильмов и фотографиями со съемочных площадок. Некоторые из этих интервью уникальны тем, что являются единственными интервью данных людей.
Техническое качество - важный аспект сериала. Немые фильмы часто показываются по ТВ в плохих копиях, воспроизводимых ускоренно под аккомпанемент расстроенного пианино. В данном сериале используются максимально качественные фрагменты фильмов, корректно воспроизведённые в оркестровом сопровождении специально написанной Карлом Дэвисом музыки, что даёт зрителю представление о том, как на самом деле воспринимались эти фильмы в больших кинотеатрах 1910-20-х годов.
Данный сериал являлся лишь первым из множества, созданный этой группой авторов. Во многом на основании материалов, собранных для этого сериала, были в дальнейшем сняты "Неизвестный Чаплин", "Бастер Китон, после которого трудно выступать" и "Гарольд Ллойд - третий гений". Ну и конечно нельзя не упомянуть сериал, аналогичный данному, но посвящённый истории европейского кино - "Кино Европы: Неизвестный Голливуд".
Огромное спасибо Tanat13 за предоставленный русский звук.
Сэмпл: http://multi-up.com/905620
Качество: VHSRip
Формат: AVI
Видео: XViD, 528x400 [4:3], ~1700-1800 Kbps, 29.970 fps
Аудио 1: MP3, 128 kbps, 48 kHz, mono, русский
Аудио 2: MP3, 128 kbps, 48 kHz, mono, английский

Качество - VHS, DVD и т.д.

Этот сериал трижды издавался на видео - в виде VHS, LaserDisc и DVD. Приобрести сейчас VHS не представляет сложности - они есть даже на Amazon. LD'шки давно уже кончились и не переиздаются (не очень-то и хотелось). Печальней всего дело обстоит с DVD - сериал на них был выпущен в 2006, но буквально в течение недель тираж был отозван из магазинов в связи с проблемами с авторскими правами - в сериале множество фрагментов различных кинолент, на которые у авторов сериала нет прав на DVD-издание (только на трансляцию по ТВ). Кевин Браунлоу в одном из интервью сказал, что по этой причине сериал вряд ли когда-то повторно выйдет на DVD.
Соответственно всё что удалось найти - это помесь: первых 9 серий в виде VHS-rip'а, серии 10-13 - то ли средненький по качеству DVD-rip, то ли LD-rip. Если у кого-то есть этот сериал в лучшем качестве и вы готовы предоставить копию для сведения его с русским звуком - свяжитесь со мной, пожалуйста.

Перевод

Использован перевод, предоставленный Tanat13, за что ему ещё раз спасибо. Перевод был записан ещё в 1990-е на бытовой VHS с киевского канала "Гравис", так что качество не очень высокое. И кстати, 6-я серия к сожалению не полная - если кто-то может предоставить полный вариант русского перевода, буду благодарен.

Темп выпуска

К сожалению, я не смогу сводить и выпускать более двух серий в месяц - просьба учесть это и не кричать "где новые серии" чаще.

Внимание! Раздача ведётся путём добавления новых серий

Внимание! Раздача ведётся путём добавления новых серий; при каждом добавлении создаётся новый торрент. Чтобы начать докачку новых серий, пользователям необходимо сделать следующее:
(1) остановить скачивание,
(2) удалить старый торрент у себя из клиента (старые серии удалять не надо),
(3) скачать новый торрент и запустить его у себя в клиенте вместо старого, при этом указать клиенту путь в старую папку куда и должно происходить скачивание новых серий.
Ваш клиент при этом должен произвести хеширование (проверку) старой папки (если не производит сам - помогите ему сделать это). В результате он будет докачивать только те серии, которых у Вас ещё нет. Старые серии при этом не удаляются, а продолжают раздаваться!
Eсли Вы уже удалили старые серии, и не хотите закачивать их заново, то предотвратить их повторную закачку можно, сняв галочки в соответствующих местах при запуске нового торрента.
Желательно не удалять старые серии как можно дольше, чтобы релизёр не только продолжал раздавать старые серии, но и смог сконцентрироваться на новых.

Список серий, скриншоты, MediaInfo

01. Пионеры (Pioneers), 8.01.1980

MediaInfo

Код:
General
Complete name                            : D:\Hollywood\Hollywood 01 - Pioneers (VHSRip)(rus,eng).avi
Format                                   : AVI
Format/Info                              : Audio Video Interleave
File size                                : 744 MiB
Duration                                 : 52mn 4s
Overall bit rate                         : 1 997 Kbps
Writing application                      : VirtualDubMod 1.5.10.2 (build 2540/release)
Writing library                          : VirtualDubMod build 2540/release
Video
ID                                       : 0
Format                                   : MPEG-4 Visual
Format profile                           : Simple@L3
Format settings, BVOP                    : No
Format settings, QPel                    : No
Format settings, GMC                     : No warppoints
Format settings, Matrix                  : Default (H.263)
Codec ID                                 : XVID
Codec ID/Hint                            : XviD
Duration                                 : 52mn 4s
Bit rate                                 : 1 724 Kbps
Width                                    : 528 pixels
Height                                   : 400 pixels
Display aspect ratio                     : 4:3
Frame rate                               : 29.970 fps
Color space                              : YUV
Chroma subsampling                       : 4:2:0
Bit depth                                : 8 bits
Scan type                                : Progressive
Compression mode                         : Lossy
Bits/(Pixel*Frame)                       : 0.272
Stream size                              : 642 MiB (86%)
Writing library                          : XviD 1.0.2 (UTC 2004-08-29)
Audio #1
ID                                       : 1
Format                                   : MPEG Audio
Format version                           : Version 1
Format profile                           : Layer 3
Codec ID                                 : 55
Codec ID/Hint                            : MP3
Duration                                 : 52mn 2s
Bit rate mode                            : Constant
Bit rate                                 : 128 Kbps
Channel(s)                               : 1 channel
Sampling rate                            : 48.0 KHz
Compression mode                         : Lossy
Stream size                              : 47.6 MiB (6%)
Alignment                                : Aligned on interleaves
Interleave, duration                     : 33 ms (1.00 video frame)
Interleave, preload duration             : 504 ms
Writing library                          : LAME3.98r
Encoding settings                        : -m m -V 4 -q 2 -lowpass 20.5 -b 128
Audio #2
ID                                       : 2
Format                                   : MPEG Audio
Format version                           : Version 1
Format profile                           : Layer 3
Codec ID                                 : 55
Codec ID/Hint                            : MP3
Duration                                 : 52mn 4s
Bit rate mode                            : Constant
Bit rate                                 : 128 Kbps
Channel(s)                               : 1 channel
Sampling rate                            : 48.0 KHz
Compression mode                         : Lossy
Stream size                              : 47.7 MiB (6%)
Alignment                                : Split accross interleaves
Interleave, duration                     : 33 ms (1.00 video frame)
Interleave, preload duration             : 500 ms

02. В начале (In the Beginning), 15.01.1980

MediaInfo

Код:
General
Complete name                            : D:\Hollywood\Hollywood 02 - In The Beginning (VHSRip)(rus,eng).avi
Format                                   : AVI
Format/Info                              : Audio Video Interleave
File size                                : 744 MiB
Duration                                 : 51mn 41s
Overall bit rate                         : 2 012 Kbps
Writing application                      : VirtualDubMod 1.5.10.2 (build 2540/release)
Writing library                          : VirtualDubMod build 2540/release
Video
ID                                       : 0
Format                                   : MPEG-4 Visual
Format profile                           : Simple@L3
Format settings, BVOP                    : No
Format settings, QPel                    : No
Format settings, GMC                     : No warppoints
Format settings, Matrix                  : Default (H.263)
Codec ID                                 : XVID
Codec ID/Hint                            : XviD
Duration                                 : 51mn 41s
Bit rate                                 : 1 739 Kbps
Width                                    : 528 pixels
Height                                   : 400 pixels
Display aspect ratio                     : 4:3
Frame rate                               : 29.970 fps
Color space                              : YUV
Chroma subsampling                       : 4:2:0
Bit depth                                : 8 bits
Scan type                                : Progressive
Compression mode                         : Lossy
Bits/(Pixel*Frame)                       : 0.275
Stream size                              : 643 MiB (86%)
Writing library                          : XviD 1.0.2 (UTC 2004-08-29)
Audio #1
ID                                       : 1
Format                                   : MPEG Audio
Format version                           : Version 1
Format profile                           : Layer 3
Codec ID                                 : 55
Codec ID/Hint                            : MP3
Duration                                 : 51mn 41s
Bit rate mode                            : Constant
Bit rate                                 : 128 Kbps
Channel(s)                               : 1 channel
Sampling rate                            : 48.0 KHz
Compression mode                         : Lossy
Stream size                              : 47.3 MiB (6%)
Alignment                                : Aligned on interleaves
Interleave, duration                     : 33 ms (1.00 video frame)
Interleave, preload duration             : 504 ms
Writing library                          : LAME3.98r
Encoding settings                        : -m m -V 4 -q 2 -lowpass 20.5 -b 128
Audio #2
ID                                       : 2
Format                                   : MPEG Audio
Format version                           : Version 1
Format profile                           : Layer 3
Codec ID                                 : 55
Codec ID/Hint                            : MP3
Duration                                 : 51mn 41s
Bit rate mode                            : Constant
Bit rate                                 : 128 Kbps
Channel(s)                               : 1 channel
Sampling rate                            : 48.0 KHz
Compression mode                         : Lossy
Stream size                              : 47.3 MiB (6%)
Alignment                                : Split accross interleaves
Interleave, duration                     : 33 ms (1.00 video frame)
Interleave, preload duration             : 500 ms
[torrentux.pl].t4688105.torrent 
Торрент: Зарегистрирован   [ 2013-06-24 04:13 ]
Скачать
Статус: проверено
Скачан: 30 раз
Размер: 1.45 GB
 
[Профиль] [ЛС]
Быстрый ответ

Имя:

         ?
Для отправки сообщений необходимо включить JavaScript
Показать сообщения:    
Ответить на тему

Текущее время: 16-Янв 22:27

Часовой пояс: UTC + 3



Вы можете начинать темы
Вы можете отвечать на сообщения
Вы можете редактировать свои сообщения
Вы не можете удалять свои сообщения
Вы не можете голосовать в опросах
Вы можете прикреплять файлы к сообщениям
Вы можете скачивать файлы
Яндекс.Метрика