Всегда с народом (Э. Рахимова) [1978, документальный, DVDRip]

Ответить на тему
Статистика раздачи
Размер:  401 MB   |    Зарегистрирован:  3 года 7 месяцев   |    Скачан:  0 раз

Полного источника не было: 2 года 10 месяцев

   
 
Автор Сообщение

kiotox ®

Пол: Не указан

Стаж: 2 года 8 месяцев

Сообщений: 1411539

Создавать темы 22-Сен-2013 07:52

[Цитировать]

Всегда с народом
Год выпуска: 1978
Страна: CCCP
Жанр: документальный
Продолжительность: 00:49:34
Перевод: Не требуется
Режиссер: Э. Рахимова
Описание: Фильм посвящен поездке Генерального секретаря ЦК КПСС Л.Брежнева в районы Сибири и Дальнего Востока весной 1978 года
качество: DVDRip
формат: AVI
Видео: Xvid 720x544 25fps 994 Kbps
Аудио: MP3 48000Hz stereo 128kbps

MediaInfo

General
Complete name : C:\Documents and Settings\User\Мои документы\Всегда с народом.avi
Format : AVI
Format/Info : Audio Video Interleave
File size : 401 MiB
Duration : 49mn 34s
Overall bit rate : 1 132 Kbps
Writing application : VirtualDubMod 1.5.10.3 | www.virtualdub-fr.org || (build 2550/release)
Writing library : VirtualDubMod build 2550/release
Video
ID : 0
Format : MPEG-4 Visual
Format profile : Advanced Simple@L5
Format settings, BVOP : Yes
Format settings, QPel : No
Format settings, GMC : No warppoints
Format settings, Matrix : Default (H.263)
Codec ID : XVID
Codec ID/Hint : XviD
Duration : 49mn 34s
Bit rate : 994 Kbps
Width : 720 pixels
Height : 544 pixels
Display aspect ratio : 4:3
Frame rate : 25.000 fps
Color space : YUV
Chroma subsampling : 4:2:0
Bit depth : 8 bits
Scan type : Progressive
Compression mode : Lossy
Bits/(Pixel*Frame) : 0.101
Stream size : 352 MiB (88%)
Writing library : XviD 1.2.1 (UTC 2008-12-04)
Audio
ID : 1
Format : MPEG Audio
Format version : Version 1
Format profile : Layer 3
Codec ID : 55
Codec ID/Hint : MP3
Duration : 49mn 34s
Bit rate mode : Constant
Bit rate : 128 Kbps
Channel count : 2 channels
Sampling rate : 48.0 KHz
Compression mode : Lossy
Stream size : 45.4 MiB (11%)
Alignment : Aligned on interleaves
Interleave, duration : 40 ms (1.00 video frame)
Interleave, preload duration : 504 ms
Writing library : LAME3.99r
Encoding settings : -m s -V 4 -q 2 -lowpass 17 -b 128

Скриншоты

[torrentux.pl].t4688255.torrent 
Торрент: Зарегистрирован   [ 2013-06-24 10:52 ]
Скачать
Статус: проверено
Скачан: 0 раз
Размер: 401 MB
 
[Профиль] [ЛС]
Быстрый ответ

Имя:

         ?
Для отправки сообщений необходимо включить JavaScript
Показать сообщения:    
Ответить на тему

Текущее время: 20-Фев 00:00

Часовой пояс: UTC + 3



Вы можете начинать темы
Вы можете отвечать на сообщения
Вы можете редактировать свои сообщения
Вы не можете удалять свои сообщения
Вы не можете голосовать в опросах
Вы можете прикреплять файлы к сообщениям
Вы можете скачивать файлы
Яндекс.Метрика