(Synthpop / Electropop) Icona Pop - This Is... Icona Pop - 2013, FLAC (tracks+.cue), lossless

Ответить на тему
Статистика раздачи
Размер:  252 MB   |    Зарегистрирован:  3 года 8 месяцев   |    Скачан:  48 раз

Полного источника не было: 1 год 9 месяцев

   
 
Автор Сообщение

kiotox ®

Пол: Не указан

Стаж: 2 года 8 месяцев

Сообщений: 1411539

Создавать темы 22-Сен-2013 14:45

[Цитировать]

Icona Pop / This Is... Icona Pop
Жанр: Synthpop / Electropop
Год издания: 2013
Издатель (лейбл): TEN / Atlantic
Страна: Sweden
Аудиокодек: FLAC (*.flac)
Тип рипа: tracks+.cue
Битрейт аудио: lossless
Продолжительность: 33:03
Источник (релизер): what.cd (scene)
Наличие сканов в содержимом раздачи: нет
Треклист:
01. I Love It (Feat. Charli XCX)
02. All Night
03. We Got The World
04. Ready For The Weekend
05. Girlfriend
06. In The Stars
07. On A Roll
08. Just Another Night
09. Hold On
10. Light Me Up
11. Then We Kiss
http://iconapop.freshnet.se/
http://www.iconapop.com/
http://ru.wikipedia.org/wiki/Icona_Pop

Лог создания рипа

отсутствует

Содержание индексной карты (.CUE)

REM GENRE Dance
REM DATE 2013
REM DISCID 7E07BC0B
REM COMMENT "ExactAudioCopy v1.0b3"
CATALOG 0075678684173
PERFORMER "Icona Pop"
TITLE "This Is... Icona Pop"
FILE "01-icona_pop-i_love_it_(feat._charli_xcx).flac" WAVE
TRACK 01 AUDIO
TITLE "I Love It (Feat. Charli XCX)"
PERFORMER "Icona Pop"
ISRC SEWEE1200301
INDEX 01 00:00:00
FILE "02-icona_pop-all_night.flac" WAVE
TRACK 02 AUDIO
TITLE "All Night"
PERFORMER "Icona Pop"
ISRC SEWEE1300703
INDEX 01 00:00:00
FILE "03-icona_pop-we_got_the_world.flac" WAVE
TRACK 03 AUDIO
TITLE "We Got The World"
PERFORMER "Icona Pop"
ISRC USAT21302265
INDEX 01 00:00:00
FILE "04-icona_pop-ready_for_the_weekend.flac" WAVE
TRACK 04 AUDIO
TITLE "Ready For The Weekend"
PERFORMER "Icona Pop"
ISRC SEWEE1200903
INDEX 01 00:00:00
FILE "05-icona_pop-girlfriend.flac" WAVE
TRACK 05 AUDIO
TITLE "Girlfriend"
PERFORMER "Icona Pop"
ISRC SEWEE1300501
INDEX 01 00:00:00
FILE "06-icona_pop-in_the_stars.flac" WAVE
TRACK 06 AUDIO
TITLE "In The Stars"
PERFORMER "Icona Pop"
ISRC SEWEE1300704
INDEX 01 00:00:00
FILE "07-icona_pop-on_a_roll.flac" WAVE
TRACK 07 AUDIO
TITLE "On A Roll"
PERFORMER "Icona Pop"
ISRC USAT21302264
INDEX 01 00:00:00
FILE "08-icona_pop-just_another_night.flac" WAVE
TRACK 08 AUDIO
TITLE "Just Another Night"
PERFORMER "Icona Pop"
ISRC SEWEE1300701
INDEX 01 00:00:00
FILE "09-icona_pop-hold_on.flac" WAVE
TRACK 09 AUDIO
TITLE "Hold On"
PERFORMER "Icona Pop"
ISRC SEWEE1300706
INDEX 01 00:00:00
FILE "10-icona_pop-light_me_up.flac" WAVE
TRACK 10 AUDIO
TITLE "Light Me Up"
PERFORMER "Icona Pop"
ISRC SEWEE1300705
INDEX 01 00:00:00
FILE "11-icona_pop-then_we_kiss.flac" WAVE
TRACK 11 AUDIO
TITLE "Then We Kiss"
PERFORMER "Icona Pop"
ISRC SEWEE1300709
INDEX 01 00:00:00

Лог проверки качества

-----------------------
DON'T MODIFY THIS FILE
-----------------------
PERFORMER: auCDtect Task Manager, ver. 1.5.1RC6 build 1.5.1.7
Copyright (c) 2008-2010 y-soft. All rights reserved
http://y-soft.org
ANALYZER: auCDtect: CD records authenticity detector, version 0.8.2
Copyright (c) 2004 Oleg Berngardt. All rights reserved.
Copyright (c) 2004 Alexander Djourik. All rights reserved.
FILE: 11-icona_pop-then_we_kiss.flac
Size: 18243348 Hash: 19A069118C80DACDE4CFA2596B88D544 Accuracy: -m0
Conclusion: CDDA 100%
Signature: F78681EE557C9D92438961ECF790B9E559B1B987
FILE: 10-icona_pop-light_me_up.flac
Size: 25070571 Hash: FD82518732C39CC28C424B3F3CE6E361 Accuracy: -m0
Conclusion: CDDA 99%
Signature: D3DDE0ACC0030C2D6276BA1BE848C601BA1C41D6
FILE: 09-icona_pop-hold_on.flac
Size: 25066598 Hash: 629E10C61EA61D6C59AAFADBEC339D39 Accuracy: -m0
Conclusion: CDDA 100%
Signature: C592A3A939E624AAD3523B9EB245D92A08F5A17F
FILE: 08-icona_pop-just_another_night.flac
Size: 23819847 Hash: 4F4C7B372F940A4DEF26DFDEF8D43DAF Accuracy: -m0
Conclusion: CDDA 100%
Signature: 03CE65DA9F70B0DF75656DE5D9BE23425F18048E
FILE: 07-icona_pop-on_a_roll.flac
Size: 26591418 Hash: 9F3BE259789D1298DA9B29FCF99F5E02 Accuracy: -m0
Conclusion: CDDA 100%
Signature: F4D369687556D302E83F617D5E598713066AA6F4
FILE: 06-icona_pop-in_the_stars.flac
Size: 26913999 Hash: 26D7B75E6D3BF371B4DBDEBCD7A9762D Accuracy: -m0
Conclusion: CDDA 100%
Signature: F3DC3F3B9526467052FC83B0535E85B623A2B50A
FILE: 05-icona_pop-girlfriend.flac
Size: 23431784 Hash: 0A27FC1C0C23A98A7652BCFDD8A46B66 Accuracy: -m0
Conclusion: CDDA 100%
Signature: 4387008A7814C8279B84A554A9D5171BE050B459
FILE: 04-icona_pop-ready_for_the_weekend.flac
Size: 19694945 Hash: F0EF12BD3A4D8D8FC085681A223C2F5C Accuracy: -m0
Conclusion: CDDA 100%
Signature: D0EC31650727746EFDD9EAF5178CAA02BFA7A32A
FILE: 03-icona_pop-we_got_the_world.flac
Size: 25557800 Hash: 80CDF82E9A91B32E80D8B71BE1F71EA6 Accuracy: -m0
Conclusion: CDDA 100%
Signature: 81236B4A0CB5124B1F2F52BDF2A5715A306F0BC5
FILE: 02-icona_pop-all_night.flac
Size: 25380013 Hash: D0EC4FC227E9CE2B16C5682D88DF8EAA Accuracy: -m0
Conclusion: CDDA 100%
Signature: 3DAD4ADF6682BED4AF53B7B8C5B20F08648A81F2
FILE: 01-icona_pop-i_love_it_(feat._charli_xcx).flac
Size: 21350594 Hash: 8032277E6A5E727B64D5D5877CBCBB47 Accuracy: -m0
Conclusion: CDDA 100%
Signature: 723C617D054D4FA8EC604ED11BE3FF17AB869B16
[torrentux.pl].t4688689.torrent 
Торрент: Зарегистрирован   [ 2013-06-24 17:45 ]
Скачать
Статус: проверено
Скачан: 48 раз
Размер: 252 MB
 
[Профиль] [ЛС]

Ahmad

Пол: Не указан

Создавать темы 30-Окт-2014 04:48 (спустя 1 год 1 месяц)

[Цитировать] [Изменить]

Ahmad
 
Быстрый ответ

Имя:

         ?
Для отправки сообщений необходимо включить JavaScript
Показать сообщения:    
Ответить на тему

Текущее время: 26-Фев 04:15

Часовой пояс: UTC + 3



Вы можете начинать темы
Вы можете отвечать на сообщения
Вы можете редактировать свои сообщения
Вы не можете удалять свои сообщения
Вы не можете голосовать в опросах
Вы можете прикреплять файлы к сообщениям
Вы можете скачивать файлы
Яндекс.Метрика