SHINee - Odaiba Gasshuukoku Mezamashi Live 2011 [2011, KPop, HDTV 1080i]

Ответить на тему
Статистика раздачи
Размер:  2.89 GB   |    Зарегистрирован:  3 года 8 месяцев   |    Скачан:  6 раз

Полного источника не было: 2 года 8 месяцев

   
 
Автор Сообщение

kiotox ®

Пол: Не указан

Стаж: 2 года 8 месяцев

Сообщений: 1411539

Создавать темы 22-Сен-2013 15:45

[Цитировать]


Odaiba Gasshuukoku Mezamashi Live 2011

-
Жанр: KPop ││ Продолжительность: 00:24:18 ││ Год выпуска: 2011
-
01. JULIETTE
02. Replay ~君は僕のeverything~
03. Hello
04. Kiss Kiss Kiss

-

Тех. данные

Качество: HDTV 1080i
Контейнер: TS
Видео кодек: MPEG2
Аудио кодек: AAC
Видео: 16,0 Mb/s, 1440x1080 (16:9), 29.970 fps
Аудио: 187 kbps, 2 ch, 48,0 kHz

Отчёт MediaInfo

Общее
Идентификатор : 24608 (0x6020)
Полное имя : *:\***\SHINee - Odaiba Gasshuukoku Mezamashi Live 2011\SHINee - Odaiba Gasshuukoku Mezamashi Live 2011 (2011.08.29).ts
Формат : MPEG-TS
Размер файла : 2,89 Гбайт
Продолжительность : 24 м.
Время начала : UTC 2011-11-12 18:00:02
Время окончания : UTC 2011-11-12 18:24:17
Режим общего битрейта : Переменный
Общий поток : 17,0 Мбит/сек
Название сети : ‰e2 CS1
Оригинальное название сети : Astra 4
Frequency : 12291000000
OrbitalPosition : 110.0E
Видео
Идентификатор : 4109 (0x100D)
Идентификатор меню : 306 (0x132)
Формат : MPEG Video
Версия формата : Version 2
Профиль формата : Main@High
Параметр BVOP формата : Да
Параметр матрицы формата : Выборочная
Параметр GOP формата : M=3, N=15
Идентификатор кодека : 2
Продолжительность : 24 м.
Вид битрейта : Переменный
Битрейт : 16,0 Мбит/сек
Максимальный битрейт : 20,0 Мбит/сек
Ширина : 1440 пикселей
Высота : 1080 пикселей
Соотношение сторон : 16:9
Частота кадров : 29,970 кадров/сек
Цветовое пространство : YUV
Субдискретизация насыщенности : 4:2:0
Битовая глубина : 8 бит
Тип развёртки : Чересстрочная
Порядок развёртки : Верхнее поле первое
Метод сжатия : С потерями
Бит/(Пиксели*Кадры) : 0.343
Размер потока : 2,71 Гбайт (94%)
Основные цвета : BT.709
Характеристики трансфера : BT.709
Коэффициенты матрицы : BT.709
Аудио
Идентификатор : 4173 (0x104D)
Идентификатор меню : 306 (0x132)
Формат : AAC
Формат/Информация : Advanced Audio Codec
Версия формата : Version 2
Профиль формата : LC
Режим смешивания : ADTS
Идентификатор кодека : 15
Продолжительность : 24 м.
Вид битрейта : Постоянный / Переменный / Переменный
Битрейт : 187 Кбит/сек
Минимальный битрейт : 124 Кбит/сек / 124 Кбит/сек
Максимальный битрейт : 304 Кбит/сек / 304 Кбит/сек
Каналы : 2 канала
Расположение каналов : Front: L R
Частота : 48,0 КГц
Метод сжатия : С потерями
Задержка видео : -345 мс.
Размер потока : 32,5 Мбайт (1%)
Меню
Идентификатор : 1037 (0x40D)
Идентификатор меню : 306 (0x132)
Список : 4109 (0x100D) (MPEG Video) / 4173 (0x104D) (AAC)
Название сервиса : |ХёЖмУNEXT
Поставщик сервиса : SPET
Тип сервиса : digital television
[torrentux.pl].t4688747.torrent 
Торрент: Зарегистрирован   [ 2013-06-24 18:45 ]
Скачать
Статус: проверено
Скачан: 6 раз
Размер: 2.89 GB
 
[Профиль] [ЛС]
Быстрый ответ

Имя:

         ?
Для отправки сообщений необходимо включить JavaScript
Показать сообщения:    
Ответить на тему

Текущее время: 26-Фев 04:15

Часовой пояс: UTC + 3



Вы можете начинать темы
Вы можете отвечать на сообщения
Вы не можете редактировать свои сообщения
Вы не можете удалять свои сообщения
Вы не можете голосовать в опросах
Вы не можете прикреплять файлы к сообщениям
Вы можете скачивать файлы
Яндекс.Метрика