(Black Metal) Bathory - True Black Essence: History (Bootleg) - 1999, FLAC (image+.cue), lossless

Ответить на тему
Статистика раздачи
Размер:  349 MB   |    Зарегистрирован:  3 года 8 месяцев   |    Скачан:  30 раз

Полного источника не было: 2 года 10 месяцев

   
 
Автор Сообщение

kiotox ®

Пол: Не указан

Стаж: 2 года 8 месяцев

Сообщений: 1411539

Создавать темы 22-Сен-2013 16:04

[Цитировать]

Bathory / True Black Essence: History (Bootleg)
Жанр: Black Metal
Страна-производитель диска: Mexico
Год издания: 1999
Издатель (лейбл): N/A
Номер по каталогу: RS-99
Страна: Sweden
Аудиокодек: FLAC (*.flac)
Тип рипа: image+.cue
Битрейт аудио: lossless
Продолжительность: 00:53:53
Источник (релизер): Original CD (Собственный рип)
Наличие сканов в содержимом раздачи: Да (.jpg 600dpi)
Треклист:
01. Intro (Demo '84 Remastered Version)
02. In Conspiracy With Satan (Demo '84 Remastered Version)
03. Necromancy-Sacrifice (Demo '84 Remastered Version)
04. Raise The Dead (Demo '84 Remastered Version)
05. Sacrifice (Edit Version)
06. The Return Of The Darkness & Evil (Edit Version)
07. Valhalla (Never Before Released)
08. Satan My Master (Never Before Released)
09. In Nomine Of Satan (Never Before Released)
10. Resolution Greed (Never Before Released)
11. Witchcraft (Never Before Released)
12. Genocide (Never Before Released)
13. Call From The Grave (Live '87)
14. Interview '91
15. One Road To Asa Bay (Video Track)*

Лог создания рипа

Exact Audio Copy V1.0 beta 2 from 29. April 2011
EAC extraction logfile from 22. September 2013, 11:57
Bathory / The True Black Essence (History)
Used drive : hp DVDRAM GT31L Adapter: 0 ID: 1
Read mode : Secure
Utilize accurate stream : Yes
Defeat audio cache : Yes
Make use of C2 pointers : No
Read offset correction : 103
Overread into Lead-In and Lead-Out : No
Fill up missing offset samples with silence : Yes
Delete leading and trailing silent blocks : No
Null samples used in CRC calculations : Yes
Used interface : Native Win32 interface for Win NT & 2000
Used output format : Internal WAV Routines
Sample format : 44.100 Hz; 16 Bit; Stereo
TOC of the extracted CD
Track | Start | Length | Start sector | End sector
---------------------------------------------------------
1 | 0:00.00 | 2:11.20 | 0 | 9844
2 | 2:11.20 | 2:33.49 | 9845 | 21368
3 | 4:44.69 | 6:37.06 | 21369 | 51149
4 | 11:22.00 | 2:51.59 | 51150 | 64033
5 | 14:13.59 | 4:17.31 | 64034 | 83339
6 | 18:31.15 | 4:57.39 | 83340 | 105653
7 | 23:28.54 | 1:40.22 | 105654 | 113175
8 | 25:09.01 | 2:08.23 | 113176 | 122798
9 | 27:17.24 | 6:26.46 | 122799 | 151794
10 | 33:43.70 | 4:15.61 | 151795 | 170980
11 | 37:59.56 | 2:51.41 | 170981 | 183846
12 | 40:51.22 | 4:36.48 | 183847 | 204594
13 | 45:27.70 | 3:34.67 | 204595 | 220711
14 | 49:02.62 | 4:50.36 | 220712 | 242497
15 | 56:25.23 | 9:25.63 | 253898 | 296335
Range status and errors
Selected range
Filename D:\Torosar\EAC\Bathory - The True Black Essence (History) [1999]\Bathory - The True Black Essence (History).wav
Peak level 100.0 %
Extraction speed 2.1 X
Range quality 100.0 %
Test CRC 8CCB19D2
Copy CRC 8CCB19D2
Copy OK
No errors occurred
AccurateRip summary
Track 1 not present in database
Track 2 not present in database
Track 3 not present in database
Track 4 not present in database
Track 5 not present in database
Track 6 not present in database
Track 7 not present in database
Track 8 not present in database
Track 9 not present in database
Track 10 not present in database
Track 11 not present in database
Track 12 not present in database
Track 13 not present in database
Track 14 not present in database
None of the tracks are present in the AccurateRip database
End of status report
==== Log checksum 431CFF54E1FA23F5D5FB075A94E4FF232AB279778424E5D95C94938A485FBCFD ====

Содержание индексной карты (.CUE)

REM GENRE "Black Metal"
REM DATE 1999
REM DISCID C40F6F0F
REM COMMENT "ExactAudioCopy v1.0b2"
PERFORMER "Bathory"
TITLE "The True Black Essence (History)"
FILE "Bathory - The True Black Essence (History).flac" WAVE
TRACK 01 AUDIO
TITLE "Intro (Demo '84 Remastered Version)"
PERFORMER "Bathory"
INDEX 01 00:00:00
TRACK 02 AUDIO
TITLE "In Conspiracy With Satan (Demo '84 Remastered Version)"
PERFORMER "Bathory"
INDEX 00 02:09:20
INDEX 01 02:11:20
TRACK 03 AUDIO
TITLE "Necromancy-Sacrifice (Demo '84 Remastered Version)"
PERFORMER "Bathory"
INDEX 00 04:42:69
INDEX 01 04:44:69
TRACK 04 AUDIO
TITLE "Raise The Dead (Demo '84 Remastered Version)"
PERFORMER "Bathory"
INDEX 00 11:20:00
INDEX 01 11:22:00
TRACK 05 AUDIO
TITLE "Sacrifice (Edit Version)"
PERFORMER "Bathory"
INDEX 00 14:11:59
INDEX 01 14:13:59
TRACK 06 AUDIO
TITLE "The Return Of The Darkness & Evil (Edit Version)"
PERFORMER "Bathory"
INDEX 00 18:29:15
INDEX 01 18:31:15
TRACK 07 AUDIO
TITLE "Valhalla (Never Before Released)"
PERFORMER "Bathory"
INDEX 00 23:26:54
INDEX 01 23:28:54
TRACK 08 AUDIO
TITLE "Satan My Master (Never Before Released)"
PERFORMER "Bathory"
INDEX 00 25:07:01
INDEX 01 25:09:01
TRACK 09 AUDIO
TITLE "In Nomine Of Satan (Never Before Released)"
PERFORMER "Bathory"
INDEX 00 27:15:24
INDEX 01 27:17:24
TRACK 10 AUDIO
TITLE "Resolution Greed (Never Before Released)"
PERFORMER "Bathory"
INDEX 00 33:41:70
INDEX 01 33:43:70
TRACK 11 AUDIO
TITLE "Witchcraft (Never Before Released)"
PERFORMER "Bathory"
INDEX 00 37:57:56
INDEX 01 37:59:56
TRACK 12 AUDIO
TITLE "Genocide (Never Before Released)"
PERFORMER "Bathory"
INDEX 00 40:49:22
INDEX 01 40:51:22
TRACK 13 AUDIO
TITLE "Call From The Grave (Live '87)"
PERFORMER "Bathory"
INDEX 00 45:25:70
INDEX 01 45:27:70
TRACK 14 AUDIO
TITLE "Interview '91"
PERFORMER "Bathory"
INDEX 00 49:00:62
INDEX 01 49:02:62

Лог проверки качества

-----------------------
DON'T MODIFY THIS FILE
-----------------------
PERFORMER: auCDtect Task Manager, ver. 1.5.1RC4 build 1.5.1.5
Copyright (c) 2008-2010 y-soft. All rights reserved
http://y-soft.org
ANALYZER: auCDtect: CD records authenticity detector, version 0.8.2
Copyright (c) 2004 Oleg Berngardt. All rights reserved.
Copyright (c) 2004 Alexander Djourik. All rights reserved.
FILE: Bathory - The True Black Essence (History).flac
Size: 355738644 Hash: F917A649BBEA045A1B46238677A34F5E Accuracy: -m0
Conclusion: CDDA 100%
Signature: 3D1FE0B5A5A72047A9EEDAADA983F3DCCF1A456D

Скриншот спектра частот

Об исполнителе (группе)

http://www.metal-archives.com/bands/Bathory/184

Об альбоме (сборнике)

Very rare compilation bootleg of cult Swedish Black Metal one man band.
CD contains tracks from demo and debut album, as well as never released before tracks, plus an interview with Quorthon.

Состав

Quorthon

Back

Bathory - The True Black Essence (History) [1999] Плейлист* - к сожалению, видеоклип не удалось скопировать с CD.
[torrentux.pl].t4688762.torrent 
Торрент: Зарегистрирован   [ 2013-06-24 19:04 ]
Скачать
Статус: проверено
Скачан: 30 раз
Размер: 349 MB
 
[Профиль] [ЛС]
Быстрый ответ

Имя:

         ?
Для отправки сообщений необходимо включить JavaScript
Показать сообщения:    
Ответить на тему

Текущее время: 26-Фев 04:15

Часовой пояс: UTC + 3



Вы можете начинать темы
Вы можете отвечать на сообщения
Вы можете редактировать свои сообщения
Вы не можете удалять свои сообщения
Вы не можете голосовать в опросах
Вы можете прикреплять файлы к сообщениям
Вы можете скачивать файлы
Яндекс.Метрика