Искатели - "Священная тайна Сибири" [2013, документальный, DVB]

Ответить на тему
Статистика раздачи
Размер:  1.39 GB   |    Зарегистрирован:  4 года 2 месяца   |    Скачан:  71 раз

Полного источника не было: 1 год 11 месяцев

   
 
Автор Сообщение

kiotox ®

Пол: Не указан

Стаж: 2 года 8 месяцев

Сообщений: 1411539

Создавать темы 22-Сен-2013 16:36

[Цитировать]

Искатели - "Священная тайна Сибири".
Год выпуска: 2013
Страна: Россия
Жанр: Документальный
Продолжительность: 00:44:01
Перевод: Не требуется

Описание

Цикл познавательно-приключенческих программ, посвященный общественно значимым событиям истории России и зарубежья, а также частным историям известных людей, которые оставили потомкам много вопросов и тайн. Жанр цикла – историческое расследование, "телевизионные приключения для взрослых". Чтобы разгадать очередную тайну, "Искатели" исследуют как летописные источники, так и находки, обнаруженные непосредственно на месте исторических событий.
В выпуске: Неподалеку от Тобольска, в Вагайском районе с незапамятных времен существует татарская деревня Баишево. Кладбище этой деревни у мусульман считается священным. Здесь по преданиям похоронен один из самых почитаемых в мусульманском мире святых Хаким-ата. Но вот что интересно. Кроме мусульман это кладбище посещают и православные, предполагая, что здесь покоится прах покорителя Сибири - казачьего атамана Ермака, похороненного в Баишевской Астане по мусульманскому обычаю. И у православных есть веские аргументы в пользу этой версии. Так кто же похоронен в Баишевской Астане ?
Качество видео: DVB
Формат видео: MPEG-PS
Видео: MPEG2 Video, 720x576 (4:3), 25 fps, 4200 kbps
Аудио: MPEG Audiо, 2 сh, 48 kHz, 192 kbps
Трансляция спутникового канала:

MediaInfo

G:\Искатели. Священная тайна Сибири. (2013)_DVB by SLuMeP.mpg
General
Complete name : G:\Искатели. Священная тайна Сибири. (2013)_DVB by SLuMeP.mpg
Format : MPEG-PS
File size : 1.39 GiB
Duration : 44mn 1s
Overall bit rate mode : Variable
Overall bit rate : 4 511 Kbps
Writing library : (c) 1998-2010 Womble Multimedia, Inc. / MPEG Video Wizard DVD 5.0.0.114 (01/2010) / Apr 20 2010
Video #224
ID : 224 (0xE0)
Format : MPEG Video
Format version : Version 2
Format profile : Main@Main
Format settings, BVOP : Yes
Format settings, Matrix : Custom
Format settings, GOP : M=3, N=36
Duration : 44mn 1s
Bit rate mode : Variable
Bit rate : 4 230 Kbps
Maximum bit rate : 15.0 Mbps
Width : 720 pixels
Height : 576 pixels
Display aspect ratio : 4:3
Frame rate : 25.000 fps
Standard : PAL
Color space : YUV
Chroma subsampling : 4:2:0
Bit depth : 8 bits
Scan type : Interlaced
Scan order : Top Field First
Compression mode : Lossy
Bits/(Pixel*Frame) : 0.408
Stream size : 1.30 GiB (94%)
Writing library : (c) 1998-2010 Womble Multimedia, Inc. / MPEG Video Wizard DVD 5.0.0.114 (01/2010) / Apr 20 2010
Audio #192
ID : 192 (0xC0)
Format : MPEG Audio
Format version : Version 1
Format profile : Layer 2
Duration : 44mn 1s
Bit rate mode : Constant
Bit rate : 192 Kbps
Channel(s) : 2 channels
Sampling rate : 48.0 KHz
Compression mode : Lossy
Delay relative to video : -80ms
Stream size : 60.5 MiB (4%)
Menu

Скриншоты

[torrentux.pl].t4688795.torrent 
Торрент: Зарегистрирован   [ 2012-11-26 19:36 ]
Скачать
Статус: проверено
Скачан: 71 раз
Размер: 1.39 GB
 
[Профиль] [ЛС]
Быстрый ответ

Имя:

         ?
Для отправки сообщений необходимо включить JavaScript
Показать сообщения:    
Ответить на тему

Текущее время: 20-Фев 00:00

Часовой пояс: UTC + 3



Вы можете начинать темы
Вы можете отвечать на сообщения
Вы можете редактировать свои сообщения
Вы не можете удалять свои сообщения
Вы не можете голосовать в опросах
Вы можете прикреплять файлы к сообщениям
Вы можете скачивать файлы
Яндекс.Метрика