Враги народа (2 выпускa) [НТВ 22.09.2013)] (Александр Зиненко) [2013 г., Документальный проект, авторское ТВ, SATRip]

Ответить на тему
Статистика раздачи
Размер:  749 MB   |    Зарегистрирован:  3 года 8 месяцев   |    Скачан:  21 раз

Полного источника не было: 2 года 8 месяцев

   
 
Автор Сообщение

kiotox ®

Пол: Не указан

Стаж: 2 года 8 месяцев

Сообщений: 1411539

Создавать темы 22-Сен-2013 16:59

[Цитировать]

«Враги народа»
Премьера на НТВ!
Дата эфира: 15-22.09.2013
Страна: Россия
Жанр: Документальный
Продолжительность: по ~37 мин.
Перевод: Не требуется
Русские субтитры: нет
Ведущий: Александр Зиненко
Режиссер: Константин Голенчик
Описание: B центре внимания самые обычные люди с их самыми обычными проблемами и врагами, с которыми в своей жизни сталкивается каждый из нас. Ведь главный враг человека – он сам.
Мы нередко попадаем в плен собственных страстей, заблуждений, зависимостей, страхов и, не в силах бороться с собой, оказываемся в тяжелейших жизненных обстоятельствах. Семейные конфликты, любовные драмы, проблемы с законом, жизненные трудности...
Задача Александра – разобраться в случившемся, и, насколько это возможно, помочь героям найти выход.

Релиз группы:
Качество: SATRip
Формат: AVI
Видео: 704x528 (1.33:1), 25 fps, DivX 6.9.2 ~1479 kbps, 0.16 bit/pixel
Аудио: 48 kHz, MPEG Layer 3, 2 ch, ~128 kbps

MediaInfo:

Общее
Полное имя : F:\Torrents\Vragi_naroda_(NTV)_[rutracker.org]\002_Vn-Moj_muzh-nichtozhestvo-15.09.2013.avi
Формат : AVI
Формат/Информация : Audio Video Interleave
Размер файла : 433 Мбайт
Продолжительность : 37 м.
Общий поток : 1617 Кбит/сек
Программа кодирования : VirtualDubMod 1.6.0.0 SURROUND (build 2560/release)
Библиотека кодирования : VirtualDubMod build 2560/release
Видео
Идентификатор : 0
Формат : MPEG-4 Visual
Параметр BVOP формата : 1
Параметр QPel формата : Нет
Параметр GMC формата : Без точки перехода
Параметр матрицы формата : Default (H.263)
Идентификатор кодека : DX50
Идентификатор кодека/Подсказка : DivX 5
Продолжительность : 37 м.
Битрейт : 1479 Кбит/сек
Ширина : 704 пикселя
Высота : 528 пикселей
Соотношение сторон : 5:4
Соотношение сторон в оригинале : 4:3
Частота кадров : 25,000 кадров/сек
Цветовое пространство : YUV
Субдискретизация насыщенности : 4:2:0
Битовая глубина : 8 бит
Тип развёртки : Прогрессивная
Метод сжатия : С потерями
Бит/(Пиксели*Кадры) : 0.159
Размер потока : 396 Мбайт (91%)
Библиотека кодирования : DivX 6.8.5 (UTC 2009-08-20)
Аудио
Идентификатор : 1
Формат : MPEG Audio
Версия формата : Version 1
Профиль формата : Layer 3
Режим : Joint stereo
Расширение режима : MS Stereo
Идентификатор кодека : 55
Идентификатор кодека/Подсказка : MP3
Продолжительность : 37 м.
Вид битрейта : Постоянный
Битрейт : 128 Кбит/сек
Каналы : 2 канала
Частота : 48,0 КГц
Метод сжатия : С потерями
Размер потока : 34,3 Мбайт (8%)
Выравнивание : Разделение по промежуткам
Продолжительность промежутка : 40 мс. (1,00 видеокадр)
Время предзагрузки промежутка : 500 мс.

Скриншоты. Превью, увеличение по клику:

Список выпусков:

01. Отцовский авторитет (эфир_15.09.2013):

В этом выпуске: Когда отец предает единственного сына, муж уходит накануне серебряной свадьбы, а квадратные метры оказываются дороже маленькой дочери… Как жить, когда войну объявляют родные люди?
Имя файла: 001_Vn-Otcovskij_avtoritet-15.09.2013.avi
Файл предоставил SVI.

02. Мой муж — ничтожество (эфир_22.09.2013):

В этом выпуске: Любимый муж вышвырнул из дома и отправил зимовать в сарай для скота. Почему она терпела его столько лет?
Имя файла: 002_Vn-Moj_muzh-nichtozhestvo-15.09.2013.avi
Добавил: 02. Мой муж — ничтожество (эфир_22.09.2013). Пожалуйста, обновите торрент-файл.
На раздаче круглосуточно, ~20 Mb/s. > [Что от меня зависит, сделал. Остальное зависит от Вас, трекера и наших провайдеров.]
[torrentux.pl].t4688814.torrent 
Торрент: Зарегистрирован   [ 2013-06-24 19:59 ]
Скачать
Статус: проверено
Скачан: 21 раз
Размер: 749 MB
 
[Профиль] [ЛС]
Быстрый ответ

Имя:

         ?
Для отправки сообщений необходимо включить JavaScript
Показать сообщения:    
Ответить на тему

Текущее время: 26-Фев 04:15

Часовой пояс: UTC + 3



Вы можете начинать темы
Вы можете отвечать на сообщения
Вы не можете редактировать свои сообщения
Вы не можете удалять свои сообщения
Вы не можете голосовать в опросах
Вы не можете прикреплять файлы к сообщениям
Вы можете скачивать файлы
Яндекс.Метрика