(Ethnic / Native American) Camuendo Marka - Dance Music Vol. 2 - 2013, FLAC (tracks+.cue), lossless

Ответить на тему
Статистика раздачи
Размер:  430 MB   |    Зарегистрирован:  3 года 8 месяцев   |    Скачан:  0 раз

Полного источника не было: 2 года 10 месяцев

   
 
Автор Сообщение

kiotox ®

Пол: Не указан

Стаж: 2 года 8 месяцев

Сообщений: 1411539

Создавать темы 22-Сен-2013 18:41

[Цитировать]

Camuendo Marka / Dance Music Vol. 2
Жанр: Ethnic / Native American
Год издания: 2013
Страна: Ecuador
Аудиокодек: FLAC (*.flac)
Тип рипа: tracks+.cue
Битрейт аудио: lossless
Продолжительность: 00:59:52 (реальная продолжительность треков почему-то не совпадает с заявленной на задней части коробки от диска)
Источник (релизер): собственный рип
Наличие сканов в содержимом раздачи: да
Треклист:
01. Chirapac (05:46)
02. Espiritual (03:18)
03. Taita Huamani (05:13)
04. Techno Meditacion (06:11)
05. Le Olay Ale Loya (05:30)
06. Apukunahuan (05:05)
07. Amanecer (06:03)
08. Inka Purinan (04:30)
09. Rumiñahui (05:09)
10. Sumac Llacta (04:30)
11. Shamboo Wkantonka (05:02)
12. Nature Nahoma (03:35)

Лог создания рипа

Exact Audio Copy V1.0 beta 3 from 29. August 2011
Отчёт EAC об извлечении, выполненном 9. сентября 2013, 0:14
Camuendo Marka / Dance Music Vol. 2
Дисковод: SlimtypeDVD A DS8A5SH Adapter: 1 ID: 0
Режим чтения : Достоверность
Использование точного потока : Да
Отключение кэша аудио : Да
Использование указателей C2 : Нет
Коррекция смещения при чтении : 6
Способность читать области Lead-in и Lead-out : Нет
Заполнение пропущенных сэмплов тишиной : Да
Удаление блоков с тишиной в начале и конце : Нет
При вычислениях CRC использовались нулевые сэмплы : Да
Интерфейс : Встроенный Win32-интерфейс для Win NT/2000
Обработка зазоров : Добавлено к предыдущему треку
Выходной формат : Пользовательский кодировщик
Выбранный битрейт : 128 kBit/s
Качество : Высокий
Добавление ID3-тега : Нет
Утилита сжатия : C:\Program Files (x86)\Exact Audio Copy\Flac\flac.exe
Дополнительные параметры : -V -8 -T "Genre=%genre%" -T "Artist=%artist%" -T "Title=%title%" -T "Album=%albumtitle%" -T "Date=%year%" -T "Tracknumber=%tracknr%" -T "Comment=%comment%" %source%
TOC извлечённого CD
Трек | Старт | Длительность | Начальный сектор | Конечный сектор
---------------------------------------------------------------------
1 | 0:00.00 | 5:46.53 | 0 | 26002
2 | 5:46.53 | 3:18.24 | 26003 | 40876
3 | 9:05.02 | 5:13.00 | 40877 | 64351
4 | 14:18.02 | 6:11.48 | 64352 | 92224
5 | 20:29.50 | 5:30.64 | 92225 | 117038
6 | 26:00.39 | 5:05.35 | 117039 | 139948
7 | 31:05.74 | 6:03.52 | 139949 | 167225
8 | 37:09.51 | 4:30.57 | 167226 | 187532
9 | 41:40.33 | 5:09.63 | 187533 | 210770
10 | 46:50.21 | 4:30.49 | 210771 | 231069
11 | 51:20.70 | 5:02.74 | 231070 | 253793
12 | 56:23.69 | 3:35.45 | 253794 | 269963
Трек 1
Имя файла C:\Users\Администратор\Desktop\Новая папка\01. Chirapac.wav
Длина предзазора 0:00:02.00
Пиковый уровень 99.9 %
Скорость извлечения 1.9 X
Качество трека 100.0 %
CRC теста C81671F2
CRC копии C81671F2
Точное извлечение (достоверность 2) [7F2E29AE] (AR v1)
Копирование... OK
Трек 2
Имя файла C:\Users\Администратор\Desktop\Новая папка\02. Espiritual.wav
Пиковый уровень 99.9 %
Скорость извлечения 2.0 X
Качество трека 100.0 %
CRC теста A00B3CB5
CRC копии A00B3CB5
Точное извлечение (достоверность 2) [055157E9] (AR v1)
Копирование... OK
Трек 3
Имя файла C:\Users\Администратор\Desktop\Новая папка\03. Taita Huamani.wav
Пиковый уровень 99.9 %
Скорость извлечения 2.3 X
Качество трека 100.0 %
CRC теста 1A1D1543
CRC копии 1A1D1543
Точное извлечение (достоверность 2) [79476C3E] (AR v1)
Копирование... OK
Трек 4
Имя файла C:\Users\Администратор\Desktop\Новая папка\04. Techno Meditacion.wav
Пиковый уровень 99.9 %
Скорость извлечения 2.6 X
Качество трека 100.0 %
CRC теста C0A5CC28
CRC копии C0A5CC28
Точное извлечение (достоверность 2) [DF927F10] (AR v1)
Копирование... OK
Трек 5
Имя файла C:\Users\Администратор\Desktop\Новая папка\05. Le Olay Ale Loya.wav
Пиковый уровень 99.9 %
Скорость извлечения 2.8 X
Качество трека 100.0 %
CRC теста ABD46EA3
CRC копии ABD46EA3
Точное извлечение (достоверность 2) [D3CAC52E] (AR v1)
Копирование... OK
Трек 6
Имя файла C:\Users\Администратор\Desktop\Новая папка\06. Apukunahuan.wav
Пиковый уровень 99.9 %
Скорость извлечения 2.9 X
Качество трека 100.0 %
CRC теста 364B20AB
CRC копии 364B20AB
Точное извлечение (достоверность 2) [B7EB4509] (AR v1)
Копирование... OK
Трек 7
Имя файла C:\Users\Администратор\Desktop\Новая папка\07. Amanecer.wav
Пиковый уровень 99.9 %
Скорость извлечения 3.2 X
Качество трека 100.0 %
CRC теста A4CC21A1
CRC копии A4CC21A1
Точное извлечение (достоверность 2) [FF9B6E00] (AR v1)
Копирование... OK
Трек 8
Имя файла C:\Users\Администратор\Desktop\Новая папка\08. Inka Purinan.wav
Пиковый уровень 99.9 %
Скорость извлечения 3.2 X
Качество трека 100.0 %
CRC теста 7C347B33
CRC копии 7C347B33
Точное извлечение (достоверность 2) [2502808B] (AR v1)
Копирование... OK
Трек 9
Имя файла C:\Users\Администратор\Desktop\Новая папка\09. Ruminahui.wav
Пиковый уровень 99.9 %
Скорость извлечения 3.4 X
Качество трека 100.0 %
CRC теста 629D1C5C
CRC копии 629D1C5C
Точное извлечение (достоверность 2) [5D6AE38A] (AR v1)
Копирование... OK
Трек 10
Имя файла C:\Users\Администратор\Desktop\Новая папка\10. Sumac Llacta.wav
Пиковый уровень 99.9 %
Скорость извлечения 3.5 X
Качество трека 100.0 %
CRC теста 9597293D
CRC копии 9597293D
Точное извлечение (достоверность 2) [BC5531FB] (AR v1)
Копирование... OK
Трек 11
Имя файла C:\Users\Администратор\Desktop\Новая папка\11. Shamboo Wkantonka.wav
Пиковый уровень 99.9 %
Скорость извлечения 3.6 X
Качество трека 100.0 %
CRC теста CA4DE2D9
CRC копии CA4DE2D9
Точное извлечение (достоверность 2) [E828B7F2] (AR v1)
Копирование... OK
Трек 12
Имя файла C:\Users\Администратор\Desktop\Новая папка\12. Nature Nahoma.wav
Пиковый уровень 99.9 %
Скорость извлечения 3.6 X
Качество трека 100.0 %
CRC теста C21CEE43
CRC копии C21CEE43
Точное извлечение (достоверность 2) [ABC769F0] (AR v1)
Копирование... OK
Все треки извлечены точно
Ошибок не произошло
Конец отчёта
==== Контрольная сумма отчёта 01728BA50A21BEB2498B97E9DE380B28B0EECD819EA73B6B152B79CD2B58ADA3 ====

Содержание индексной карты (.CUE)

REM GENRE Folklore
REM DISCID 980E0F0C
REM COMMENT "ExactAudioCopy v1.0b3"
PERFORMER "Camuendo Marka"
TITLE "Dance Music Vol. 2"
FILE "01. Chirapac.wav" WAVE
TRACK 01 AUDIO
TITLE "Chirapac"
PERFORMER "Camuendo Marka"
INDEX 01 00:00:00
FILE "02. Espiritual.wav" WAVE
TRACK 02 AUDIO
TITLE "Espiritual"
PERFORMER "Camuendo Marka"
INDEX 01 00:00:00
FILE "03. Taita Huamani.wav" WAVE
TRACK 03 AUDIO
TITLE "Taita Huamani"
PERFORMER "Camuendo Marka"
INDEX 01 00:00:00
FILE "04. Techno Meditacion.wav" WAVE
TRACK 04 AUDIO
TITLE "Techno Meditacion"
PERFORMER "Camuendo Marka"
INDEX 01 00:00:00
FILE "05. Le Olay Ale Loya.wav" WAVE
TRACK 05 AUDIO
TITLE "Le Olay Ale Loya"
PERFORMER "Camuendo Marka"
INDEX 01 00:00:00
FILE "06. Apukunahuan.wav" WAVE
TRACK 06 AUDIO
TITLE "Apukunahuan"
PERFORMER "Camuendo Marka"
INDEX 01 00:00:00
FILE "07. Amanecer.wav" WAVE
TRACK 07 AUDIO
TITLE "Amanecer"
PERFORMER "Camuendo Marka"
INDEX 01 00:00:00
FILE "08. Inka Purinan.wav" WAVE
TRACK 08 AUDIO
TITLE "Inka Purinan"
PERFORMER "Camuendo Marka"
INDEX 01 00:00:00
FILE "09. Ruminahui.wav" WAVE
TRACK 09 AUDIO
TITLE "Ruminahui"
PERFORMER "Camuendo Marka"
INDEX 01 00:00:00
FILE "10. Sumac Llacta.wav" WAVE
TRACK 10 AUDIO
TITLE "Sumac Llacta"
PERFORMER "Camuendo Marka"
INDEX 01 00:00:00
FILE "11. Shamboo Wkantonka.wav" WAVE
TRACK 11 AUDIO
TITLE "Shamboo Wkantonka"
PERFORMER "Camuendo Marka"
INDEX 01 00:00:00
FILE "12. Nature Nahoma.wav" WAVE
TRACK 12 AUDIO
TITLE "Nature Nahoma"
PERFORMER "Camuendo Marka"
INDEX 01 00:00:00
[torrentux.pl].t4688920.torrent 
Торрент: Зарегистрирован   [ 2013-06-24 21:41 ]
Скачать
Статус: проверено
Скачан: 0 раз
Размер: 430 MB
 
[Профиль] [ЛС]
Быстрый ответ

Имя:

         ?
Для отправки сообщений необходимо включить JavaScript
Показать сообщения:    
Ответить на тему

Текущее время: 26-Фев 04:17

Часовой пояс: UTC + 3



Вы можете начинать темы
Вы можете отвечать на сообщения
Вы не можете редактировать свои сообщения
Вы не можете удалять свои сообщения
Вы не можете голосовать в опросах
Вы не можете прикреплять файлы к сообщениям
Вы можете скачивать файлы
Яндекс.Метрика