(Hard Bop) Miles Davis - Evolution Of A Genius 1954-1956 - 1990 [Giants Of Jazz CD 53063], FLAC (tracks+.cue), lossless

Ответить на тему
Статистика раздачи
Размер:  340 MB   |    Зарегистрирован:  3 года 6 месяцев   |    Скачан:  5 раз

Полного источника не было: 2 года 7 месяцев

   
 
Автор Сообщение

kiotox ®

Пол: Не указан

Стаж: 2 года 7 месяцев

Сообщений: 1411539

Создавать темы 22-Сен-2013 18:49

[Цитировать]

Miles Davis – Evolution Of A Genius 1954-1956
Жанр: Hard Bop
Год издания: 1990
Издатель (лейбл): Giants Of Jazz
Номер по каталогу: CD 53063
Аудиокодек: FLAC (*.flac)
Тип рипа: tracks+.cue
Битрейт аудио: lossless
Продолжительность: 72:14
Источник (релизер): What.cd (maxis_777)
Наличие сканов в содержимом раздачи: сетевые
Треклист:
01. Bags' Groove (9:23)
02. The Man I Love (7:58)
03. Budo (4:17)
04. S'posin' (5:16)
05. There Is No Greater Love (5:18)
06. Just Squeeze Me (7:31)
07. Vierd Blues (6:51)
08. Diane (7:45)
09. In Your Own Sweet Way (5:43)
10. 'Round Midnight (5:54)
11. Well You Needn't (6:19)
   GIANTS OF JAZZ на трекере
 

Лог создания рипа

X Lossless Decoder version 20130720 (144.0)
XLD extraction logfile from 2013-08-30 14:21:25 +0300
Miles Davis / Evolution of a Genius 1954-1956
Used drive : TSSTcorp BDDVDW SE-506AB (revision TS00)
Media type : Pressed CD
Ripper mode : XLD Secure Ripper
Disable audio cache : OK for the drive with a cache less than 1375KiB
Make use of C2 pointers : NO
Read offset correction : 6
Max retry count : 100
Gap status : Analyzed, Appended (except HTOA)
TOC of the extracted CD
Track | Start | Length | Start sector | End sector
---------------------------------------------------------
1 | 00:00:33 | 09:22:40 | 33 | 42222
2 | 09:22:73 | 07:57:42 | 42223 | 78039
3 | 17:20:40 | 04:17:03 | 78040 | 97317
4 | 21:37:43 | 05:16:22 | 97318 | 121039
5 | 26:53:65 | 05:17:43 | 121040 | 144857
6 | 32:11:33 | 07:30:67 | 144858 | 178674
7 | 39:42:25 | 06:50:65 | 178675 | 209489
8 | 46:33:15 | 07:45:33 | 209490 | 244397
9 | 54:18:48 | 05:42:45 | 244398 | 270092
10 | 60:01:18 | 05:53:72 | 270093 | 296639
11 | 65:55:15 | 06:19:33 | 296640 | 325097
AccurateRip Summary (DiscID: 001ea362-01060c58-a110ee0b)
Track 01 : OK (v1+v2, confidence 17/17)
Track 02 : OK (v1+v2, confidence 15/15)
Track 03 : OK (v1+v2, confidence 16/16)
Track 04 : OK (v1+v2, confidence 17/17)
Track 05 : OK (v1+v2, confidence 17/17)
Track 06 : OK (v1+v2, confidence 15/15)
Track 07 : OK (v1+v2, confidence 16/16)
Track 08 : OK (v1+v2, confidence 16/16)
Track 09 : OK (v1+v2, confidence 15/15)
Track 10 : OK (v1+v2, confidence 16/16)
Track 11 : OK (v1+v2, confidence 16/16)
->All tracks accurately ripped.
All Tracks
Album gain : 0.44 dB
Peak : 0.854919
Statistics
Read error : 0
Jitter error (maybe fixed) : 0
Retry sector count : 0
Damaged sector count : 0
Track 01
Filename : /Volumes/Uploads/Music/FLAC/Miles Davis - Evolution of a Genius 1954-1956 (Unknown Year) [FLAC]/01 - Miles Davis - Bags' Groove.flac
Pre-gap length : 00:02:33
Track gain : 1.96 dB
Peak : 0.514984
CRC32 hash (test run) : 607C25DE
CRC32 hash : 607C25DE
CRC32 hash (skip zero) : 169B45D2
AccurateRip v1 signature : B330A071
AccurateRip v2 signature : 431D4742
->Accurately ripped (v1+v2, confidence 9+8/17)
Statistics
Read error : 0
Jitter error (maybe fixed) : 0
Retry sector count : 0
Damaged sector count : 0
Track 02
Filename : /Volumes/Uploads/Music/FLAC/Miles Davis - Evolution of a Genius 1954-1956 (Unknown Year) [FLAC]/02 - Miles Davis - The Man I Love.flac
Pre-gap length : 00:00:03
Track gain : 1.90 dB
Peak : 0.500214
CRC32 hash (test run) : CDE542E5
CRC32 hash : CDE542E5
CRC32 hash (skip zero) : FE428C6C
AccurateRip v1 signature : 87884D4A
AccurateRip v2 signature : 55874995
->Accurately ripped (v1+v2, confidence 8+7/15)
Statistics
Read error : 0
Jitter error (maybe fixed) : 0
Retry sector count : 0
Damaged sector count : 0
Track 03
Filename : /Volumes/Uploads/Music/FLAC/Miles Davis - Evolution of a Genius 1954-1956 (Unknown Year) [FLAC]/03 - Miles Davis - Budo.flac
Pre-gap length : 00:00:02
Track gain : -1.13 dB
Peak : 0.676941
CRC32 hash (test run) : 8972C1A4
CRC32 hash : 8972C1A4
CRC32 hash (skip zero) : 4F0DD2C7
AccurateRip v1 signature : 99023117
AccurateRip v2 signature : 6C5F039A
->Accurately ripped (v1+v2, confidence 9+7/16)
Statistics
Read error : 0
Jitter error (maybe fixed) : 0
Retry sector count : 0
Damaged sector count : 0
Track 04
Filename : /Volumes/Uploads/Music/FLAC/Miles Davis - Evolution of a Genius 1954-1956 (Unknown Year) [FLAC]/04 - Miles Davis - S'posin'.flac
Pre-gap length : 00:00:03
Track gain : -0.08 dB
Peak : 0.854919
CRC32 hash (test run) : A5587F1D
CRC32 hash : A5587F1D
CRC32 hash (skip zero) : 4FF0BDC6
AccurateRip v1 signature : 2D663D02
AccurateRip v2 signature : F1375D1F
->Accurately ripped (v1+v2, confidence 9+8/17)
Statistics
Read error : 0
Jitter error (maybe fixed) : 0
Retry sector count : 0
Damaged sector count : 0
Track 05
Filename : /Volumes/Uploads/Music/FLAC/Miles Davis - Evolution of a Genius 1954-1956 (Unknown Year) [FLAC]/05 - Miles Davis - There Is No Greater Love.flac
Pre-gap length : 00:00:02
Track gain : 1.21 dB
Peak : 0.726624
CRC32 hash (test run) : AF0AA824
CRC32 hash : AF0AA824
CRC32 hash (skip zero) : 6D3BD15D
AccurateRip v1 signature : 98D5C13B
AccurateRip v2 signature : 6DD9947C
->Accurately ripped (v1+v2, confidence 9+8/17)
Statistics
Read error : 0
Jitter error (maybe fixed) : 0
Retry sector count : 0
Damaged sector count : 0
Track 06
Filename : /Volumes/Uploads/Music/FLAC/Miles Davis - Evolution of a Genius 1954-1956 (Unknown Year) [FLAC]/06 - Miles Davis - Just Squeeze Me.flac
Pre-gap length : 00:00:03
Track gain : 1.27 dB
Peak : 0.644196
CRC32 hash (test run) : F9EBC74F
CRC32 hash : F9EBC74F
CRC32 hash (skip zero) : 6AE9B141
AccurateRip v1 signature : 88B7318A
AccurateRip v2 signature : D8F967C7
->Accurately ripped (v1+v2, confidence 8+7/15)
Statistics
Read error : 0
Jitter error (maybe fixed) : 0
Retry sector count : 0
Damaged sector count : 0
Track 07
Filename : /Volumes/Uploads/Music/FLAC/Miles Davis - Evolution of a Genius 1954-1956 (Unknown Year) [FLAC]/07 - Miles Davis - Vierd Blues.flac
Pre-gap length : 00:00:02
Track gain : 0.24 dB
Peak : 0.634369
CRC32 hash (test run) : AABE4EAA
CRC32 hash : AABE4EAA
CRC32 hash (skip zero) : B61E05D0
AccurateRip v1 signature : 2DBAA6DE
AccurateRip v2 signature : 19518B33
->Accurately ripped (v1+v2, confidence 8+8/16)
Statistics
Read error : 0
Jitter error (maybe fixed) : 0
Retry sector count : 0
Damaged sector count : 0
Track 08
Filename : /Volumes/Uploads/Music/FLAC/Miles Davis - Evolution of a Genius 1954-1956 (Unknown Year) [FLAC]/08 - Miles Davis - Diane.flac
Pre-gap length : 00:00:02
Track gain : 1.42 dB
Peak : 0.576538
CRC32 hash (test run) : 4205149B
CRC32 hash : 4205149B
CRC32 hash (skip zero) : 1A71F109
AccurateRip v1 signature : 95B5CD11
AccurateRip v2 signature : 808D2E32
->Accurately ripped (v1+v2, confidence 8+8/16)
Statistics
Read error : 0
Jitter error (maybe fixed) : 0
Retry sector count : 0
Damaged sector count : 0
Track 09
Filename : /Volumes/Uploads/Music/FLAC/Miles Davis - Evolution of a Genius 1954-1956 (Unknown Year) [FLAC]/09 - Miles Davis - In Your Own Sweet Way.flac
Pre-gap length : 00:00:03
Track gain : 0.66 dB
Peak : 0.697327
CRC32 hash (test run) : C2BF1DAC
CRC32 hash : C2BF1DAC
CRC32 hash (skip zero) : F33A85B3
AccurateRip v1 signature : 0BEF831E
AccurateRip v2 signature : 29AB9F8A
->Accurately ripped (v1+v2, confidence 8+7/15)
Statistics
Read error : 0
Jitter error (maybe fixed) : 0
Retry sector count : 0
Damaged sector count : 0
Track 10
Filename : /Volumes/Uploads/Music/FLAC/Miles Davis - Evolution of a Genius 1954-1956 (Unknown Year) [FLAC]/10 - Miles Davis - 'Round Midnight.flac
Pre-gap length : 00:00:03
Track gain : -0.26 dB
Peak : 0.590851
CRC32 hash (test run) : 828DC5D7
CRC32 hash : 828DC5D7
CRC32 hash (skip zero) : 8701DD0D
AccurateRip v1 signature : DBD089C4
AccurateRip v2 signature : 81DB48FF
->Accurately ripped (v1+v2, confidence 8+8/16)
Statistics
Read error : 0
Jitter error (maybe fixed) : 0
Retry sector count : 0
Damaged sector count : 0
Track 11
Filename : /Volumes/Uploads/Music/FLAC/Miles Davis - Evolution of a Genius 1954-1956 (Unknown Year) [FLAC]/11 - Miles Davis - Well You Needn't.flac
Pre-gap length : 00:00:02
Track gain : -0.04 dB
Peak : 0.681885
CRC32 hash (test run) : A590F9CE
CRC32 hash : A590F9CE
CRC32 hash (skip zero) : D10F5AC1
AccurateRip v1 signature : 6E7E6E49
AccurateRip v2 signature : AE02784E
->Accurately ripped (v1+v2, confidence 8+8/16)
Statistics
Read error : 0
Jitter error (maybe fixed) : 0
Retry sector count : 0
Damaged sector count : 0
No errors occurred
End of status report

Содержание индексной карты (.CUE)

REM GENRE Jazz
REM DATE 1990
TITLE "Evolution Of A Genius 1954-1956"
PERFORMER "Miles Davis"
REM DISCID A110EE0B
FILE "01. Bags' Groove.flac" WAVE
TRACK 01 AUDIO
TITLE "Bags' Groove"
PERFORMER "Miles Davis"
PREGAP 00:00:33
INDEX 01 00:00:00
TRACK 02 AUDIO
TITLE "The Man I Love"
PERFORMER "Miles Davis"
INDEX 00 09:22:37
FILE "02. The Man I Love.flac" WAVE
INDEX 01 00:00:00
TRACK 03 AUDIO
TITLE "Budo"
PERFORMER "Miles Davis"
INDEX 00 07:57:40
FILE "03. Budo.flac" WAVE
INDEX 01 00:00:00
TRACK 04 AUDIO
TITLE "S'posin'"
PERFORMER "Miles Davis"
INDEX 00 04:17:00
FILE "04. S'posin'.flac" WAVE
INDEX 01 00:00:00
TRACK 05 AUDIO
TITLE "There Is No Greater Love"
PERFORMER "Miles Davis"
INDEX 00 05:16:20
FILE "05. There Is No Greater Love.flac" WAVE
INDEX 01 00:00:00
TRACK 06 AUDIO
TITLE "Just Squeeze Me"
PERFORMER "Miles Davis"
INDEX 00 05:17:40
FILE "06. Just Squeeze Me.flac" WAVE
INDEX 01 00:00:00
TRACK 07 AUDIO
TITLE "Vierd Blues"
PERFORMER "Miles Davis"
INDEX 00 07:30:65
FILE "07. Vierd Blues.flac" WAVE
INDEX 01 00:00:00
TRACK 08 AUDIO
TITLE "Diane"
PERFORMER "Miles Davis"
INDEX 00 06:50:63
FILE "08. Diane.flac" WAVE
INDEX 01 00:00:00
TRACK 09 AUDIO
TITLE "In Your Own Sweet Way"
PERFORMER "Miles Davis"
INDEX 00 07:45:30
FILE "09. In Your Own Sweet Way.flac" WAVE
INDEX 01 00:00:00
TRACK 10 AUDIO
TITLE "'Round Midnight"
PERFORMER "Miles Davis"
INDEX 00 05:42:42
FILE "10. 'Round Midnight.flac" WAVE
INDEX 01 00:00:00
TRACK 11 AUDIO
TITLE "Well You Needn't"
PERFORMER "Miles Davis"
INDEX 00 05:53:70
FILE "11. Well You Needn't.flac" WAVE
INDEX 01 00:00:00

AccurateRip

[CUETools log; Date: 22.09.2013 22:45:29; Version: 2.0.9]
Pregap length 00:00:33.
[CTDB TOCID: kvlsP_un2jsXjA6hzbBvON2WC0w-] disk not present in database.
[AccurateRip ID: 001ea362-01060c58-a110ee0b] found.
Track [ CRC ] Status
01 [b330a071] (09/17) Accurately ripped
02 [87884d4a] (08/15) Accurately ripped
03 [99023117] (09/16) Accurately ripped
04 [2d663d02] (09/17) Accurately ripped
05 [98d5c13b] (09/17) Accurately ripped
06 [88b7318a] (08/15) Accurately ripped
07 [2dbaa6de] (08/16) Accurately ripped
08 [95b5cd11] (08/16) Accurately ripped
09 [0bef831e] (08/15) Accurately ripped
10 [dbd089c4] (08/16) Accurately ripped
11 [6e7e6e49] (08/16) Accurately ripped
Offsetted by -1125:
01 [c955ed08] (08/17) No match but offset
02 [b94cf1cc] (07/15) No match but offset
03 [24de8a7d] (07/16) No match but offset
04 [65b06fa5] (08/17) No match but offset
05 [3bf50c90] (08/17) No match but offset
06 [87fdd976] (07/15) No match but offset
07 [c63c2a54] (08/16) No match but offset
08 [22701df7] (08/16) No match but offset
09 [4c8f11e2] (07/15) No match but offset
10 [6dc86aa5] (08/16) No match but offset
11 [76046daa] (08/16) No match but offset
Track Peak [ CRC32 ] [W/O NULL]
-- 85,4 [EFC56629] [E4C91890]
01 51,4 [607C25DE] [169B45D2]
02 50,0 [CDE542E5] [FE428C6C]
03 67,6 [8972C1A4] [4F0DD2C7]
04 85,4 [A5587F1D] [4FF0BDC6]
05 72,6 [AF0AA824] [6D3BD15D]
06 64,4 [F9EBC74F] [6AE9B141]
07 63,4 [AABE4EAA] [B61E05D0]
08 57,6 [4205149B] [1A71F109]
09 69,7 [C2BF1DAC] [F33A85B3]
10 59,0 [828DC5D7] [8701DD0D]
11 68,1 [A590F9CE] [D10F5AC1]
[torrentux.pl].t4688931.torrent 
Торрент: Зарегистрирован   [ 2013-06-24 21:49 ]
Скачать
Статус: проверено
Скачан: 5 раз
Размер: 340 MB
 
[Профиль] [ЛС]
Быстрый ответ

Имя:

         ?
Для отправки сообщений необходимо включить JavaScript
Показать сообщения:    
Ответить на тему

Текущее время: 17-Янв 12:06

Часовой пояс: UTC + 3



Вы можете начинать темы
Вы можете отвечать на сообщения
Вы не можете редактировать свои сообщения
Вы не можете удалять свои сообщения
Вы не можете голосовать в опросах
Вы не можете прикреплять файлы к сообщениям
Вы можете скачивать файлы
Яндекс.Метрика