(Alternative Rock, Christian) Decyfer Down - Crash - 2009, FLAC (tracks+.cue), lossless

Ответить на тему
Статистика раздачи
Размер:  269 MB   |    Зарегистрирован:  3 года 6 месяцев   |    Скачан:  0 раз

Полного источника не было: 2 года 8 месяцев

   
 
Автор Сообщение

kiotox ®

Пол: Не указан

Стаж: 2 года 7 месяцев

Сообщений: 1411539

Создавать темы 22-Сен-2013 19:08

[Цитировать]

Decyfer Down / Crash
Жанр: Alternative Rock, Christian
Страна-производитель диска: USA
Год издания: 2009
Издатель (лейбл): INO Records
Номер по каталогу: 44832
Страна: USA
Аудиокодек: FLAC (*.flac)
Тип рипа: tracks+.cue
Битрейт аудио: lossless
Продолжительность: 37:38:00
Источник (релизер): собственный диск
Наличие сканов в содержимом раздачи: нет
Треклист:
01. Crash
02. Desperate
03. Fading
04. Best I Can
05. Ride With Me
06. Wasting Away
07. Over My Head
08. Moving On
09. The Life
10. Forever With You

Лог проверки качества

Exact Audio Copy V1.0 beta 3 from 29. August 2011
EAC extraction logfile from 22. September 2013, 21:47
Decyfer Down / Crash
Used drive : Optiarc DVD RW AD-7170A Adapter: 0 ID: 0
Read mode : Secure
Utilize accurate stream : Yes
Defeat audio cache : Yes
Make use of C2 pointers : No
Read offset correction : 48
Overread into Lead-In and Lead-Out : No
Fill up missing offset samples with silence : Yes
Delete leading and trailing silent blocks : No
Null samples used in CRC calculations : Yes
Used interface : Installed external ASPI interface
Gap handling : Appended to previous track
Used output format : User Defined Encoder
Selected bitrate : 1024 kBit/s
Quality : High
Add ID3 tag : No
Command line compressor : C:\EAC_1.0_beta_3_Portable_Multilingual\EAC_1.0_beta_3_Portable_Multilingual\App\EAC\FLAC\flac.exe
Additional command line options : -6 -V -T "ARTIST=%artist%" -T "TITLE=%title%" -T "ALBUM=%albumtitle%" -T "DATE=%year%" -T "TRACKNUMBER=%tracknr%" -T "GENRE=%genre%" -T "COMMENT=%comment%" %hascover%--picture="%coverfile%"%hascover% %source% -o %dest%
TOC of the extracted CD
Track | Start | Length | Start sector | End sector
---------------------------------------------------------
1 | 0:00.00 | 3:51.28 | 0 | 17352
2 | 3:51.28 | 2:54.61 | 17353 | 30463
3 | 6:46.14 | 4:11.15 | 30464 | 49303
4 | 10:57.29 | 3:38.11 | 49304 | 65664
5 | 14:35.40 | 3:22.49 | 65665 | 80863
6 | 17:58.14 | 4:02.63 | 80864 | 99076
7 | 22:01.02 | 3:54.02 | 99077 | 116628
8 | 25:55.04 | 3:45.58 | 116629 | 133561
9 | 29:40.62 | 3:48.67 | 133562 | 150728
10 | 33:29.54 | 4:08.74 | 150729 | 169402
Track 1
Filename C:\Decyfer Down - Crash (FLAC)\01 Crash.wav
Pre-gap length 0:00:02.00
Peak level 98.8 %
Extraction speed 1.1 X
Track quality 99.9 %
Test CRC 4D2C63E1
Copy CRC 4D2C63E1
Accurately ripped (confidence 3) [F8A90C5C] (AR v2)
Copy OK
Track 2
Filename C:\Decyfer Down - Crash (FLAC)\02 Desperate.wav
Peak level 98.8 %
Extraction speed 1.3 X
Track quality 100.0 %
Test CRC C176C8B0
Copy CRC C176C8B0
Accurately ripped (confidence 3) [C76C8F94] (AR v2)
Copy OK
Track 3
Filename C:\Decyfer Down - Crash (FLAC)\03 Fading.wav
Peak level 98.8 %
Extraction speed 1.5 X
Track quality 100.0 %
Test CRC B5206F71
Copy CRC B5206F71
Accurately ripped (confidence 3) [A08A4B94] (AR v2)
Copy OK
Track 4
Filename C:\Decyfer Down - Crash (FLAC)\04 Best I Can.wav
Peak level 98.8 %
Extraction speed 1.4 X
Track quality 99.9 %
Test CRC 1B882505
Copy CRC 1B882505
Accurately ripped (confidence 3) [F0CC7CFC] (AR v2)
Copy OK
Track 5
Filename C:\Decyfer Down - Crash (FLAC)\05 Ride with Me.wav
Peak level 98.8 %
Extraction speed 1.6 X
Track quality 100.0 %
Test CRC 1DC5076F
Copy CRC 1DC5076F
Accurately ripped (confidence 3) [D7AFD87A] (AR v2)
Copy OK
Track 6
Filename C:\Decyfer Down - Crash (FLAC)\06 Wasting Away.wav
Peak level 98.9 %
Extraction speed 1.8 X
Track quality 100.0 %
Test CRC B67990B7
Copy CRC B67990B7
Accurately ripped (confidence 2) [FD241583] (AR v2)
Copy OK
Track 7
Filename C:\Decyfer Down - Crash (FLAC)\07 Over My Head.wav
Peak level 98.8 %
Extraction speed 1.6 X
Track quality 99.9 %
Test CRC D1BBF2B1
Copy CRC D1BBF2B1
Accurately ripped (confidence 3) [E819DEA1] (AR v2)
Copy OK
Track 8
Filename C:\Decyfer Down - Crash (FLAC)\08 Moving On.wav
Peak level 98.8 %
Extraction speed 1.7 X
Track quality 99.9 %
Test CRC 1FC0411F
Copy CRC 1FC0411F
Accurately ripped (confidence 3) [CABFD4F6] (AR v2)
Copy OK
Track 9
Filename C:\Decyfer Down - Crash (FLAC)\09 The Life.wav
Peak level 98.8 %
Extraction speed 2.0 X
Track quality 100.0 %
Test CRC B331786A
Copy CRC B331786A
Accurately ripped (confidence 3) [17C9C332] (AR v2)
Copy OK
Track 10
Filename C:\Decyfer Down - Crash (FLAC)\10 Forever with You.wav
Peak level 98.8 %
Extraction speed 1.9 X
Track quality 99.9 %
Test CRC 17B82086
Copy CRC 17B82086
Accurately ripped (confidence 3) [4BB31BD8] (AR v2)
Copy OK
All tracks accurately ripped
No errors occurred
End of status report
==== Log checksum FB4720E735E2601F5383774B598B4355CB953A98259201D78530F9E449610717 ====
[torrentux.pl].t4688942.torrent 
Торрент: Зарегистрирован   [ 2013-06-24 22:08 ]
Скачать
Статус: проверено
Скачан: 0 раз
Размер: 269 MB
 
[Профиль] [ЛС]
Быстрый ответ

Имя:

         ?
Для отправки сообщений необходимо включить JavaScript
Показать сообщения:    
Ответить на тему

Текущее время: 17-Янв 12:08

Часовой пояс: UTC + 3



Вы можете начинать темы
Вы можете отвечать на сообщения
Вы можете редактировать свои сообщения
Вы не можете удалять свои сообщения
Вы не можете голосовать в опросах
Вы можете прикреплять файлы к сообщениям
Вы можете скачивать файлы
Яндекс.Метрика