Татьяна Котова - Признание [2012, Pop, HDTV 1080p] (RE:Music)

Ответить на тему
Статистика раздачи
Размер:  504 MB   |    Зарегистрирован:  2 года 6 месяцев   |    Скачан:  0 раз

Полного источника не было: Никогда

 
   
 
 
Автор Сообщение

kiotox ®

Пол: Не указан

Стаж: 2 года 7 месяцев

Сообщений: 1411539

Создавать темы 22-Сен-2013 20:12

[Цитировать]

Татьяна Котова - Признание
Жанр: Pop
Продолжительность: 00:03:13
Год выпуска: 2012
Описание:
Режиссер: Тарас Дронь
Авторы музыки/слов: Дмитрий Климашенко / Дмитрий Климашенко, Arkasha
(c) 2012 Татьяна Котова
Качество: HDTV 1080i
Контейнер: MP4
Видео кодек: H.264
Аудио кодек: AAC
Видео: AVC, 1920*1080, 21.5 Mbps, 25.000 fps
Аудио: AAC, 320 Kbps, 48.0 KHz, 2 channels

Отчёт MediaInfo / BDInfo

General
Complete name : F:\REMusic\Tatyana Kotova - Priznanie.mp4
Format : MPEG-4
Format profile : Base Media / Version 2
Codec ID : mp42
File size : 504 MiB
Duration : 3mn 13s
Overall bit rate mode : Variable
Overall bit rate : 21.8 Mbps
Encoded date : UTC 2013-09-02 16:06:02
Tagged date : UTC 2013-09-02 16:06:02
©TIM : 00:00:00:00
©TSC : 25
©TSZ : 1
Video
ID : 1
Format : AVC
Format/Info : Advanced Video Codec
Format profile : Main@L4.2
Format settings, CABAC : Yes
Format settings, ReFrames : 3 frames
Codec ID : avc1
Codec ID/Info : Advanced Video Coding
Duration : 3mn 13s
Bit rate : 21.5 Mbps
Width : 1 920 pixels
Height : 1 080 pixels
Display aspect ratio : 16:9
Frame rate mode : Constant
Frame rate : 25.000 fps
Standard : PAL
Color space : YUV
Chroma subsampling : 4:2:0
Bit depth : 8 bits
Scan type : Progressive
Bits/(Pixel*Frame) : 0.414
Stream size : 496 MiB (99%)
Language : English
Encoded date : UTC 2013-09-02 16:06:02
Tagged date : UTC 2013-09-02 16:06:02
Audio
ID : 2
Format : AAC
Format/Info : Advanced Audio Codec
Format profile : LC
Codec ID : 40
Duration : 3mn 13s
Source duration : 3mn 13s
Bit rate mode : Variable
Bit rate : 317 Kbps
Maximum bit rate : 415 Kbps
Channel(s) : 2 channels
Channel positions : Front: L R
Sampling rate : 48.0 KHz
Compression mode : Lossy
Stream size : 7.34 MiB (1%)
Source stream size : 7.34 MiB (1%)
Language : English
Encoded date : UTC 2013-09-02 16:06:02
Tagged date : UTC 2013-09-02 16:06:02

Скриншоты

[torrentux.pl].t4689013.torrent 
Торрент: Зарегистрирован   [ 2014-06-19 11:47 ]

Скачать .torrent

Скачать

0 B

Статус: * не проверено
Скачан: 0 раз
Размер: 504 MB
 
[Профиль] [ЛС]
Быстрый ответ

Имя:

         ?
Для отправки сообщений необходимо включить JavaScript
Показать сообщения:    
Ответить на тему

Текущее время: 17-Янв 12:04

Часовой пояс: UTC + 3



Вы можете начинать темы
Вы можете отвечать на сообщения
Вы не можете редактировать свои сообщения
Вы не можете удалять свои сообщения
Вы не можете голосовать в опросах
Вы не можете прикреплять файлы к сообщениям
Вы можете скачивать файлы
Яндекс.Метрика