Светлана TARABAROVA - Ударами в сердце [2013, Pop, HDTV 1080p] (RE:Music)

Ответить на тему
Статистика раздачи
Размер:  435 MB   |    Зарегистрирован:  3 года 8 месяцев   |    Скачан:  5 раз

Полного источника не было: 2 года 10 месяцев

   
 
Автор Сообщение

kiotox ®

Пол: Не указан

Стаж: 2 года 8 месяцев

Сообщений: 1411539

Создавать темы 22-Сен-2013 20:21

[Цитировать]

Светлана TARABAROVA - Ударами в сердце
Жанр: Pop
Продолжительность: 00:03:20
Год выпуска: 2013
Описание:
Автор музыки/слов - Светлана Тарабарова
Режиссер - Алина Дианова
(c) 2013 Светлана Тарабарова
Качество: HDTV 1080i
Контейнер: MP4
Видео кодек: H.264
Аудио кодек: AAC
Видео: AVC, 1920*1080, 17.8 Mbps, 25.000 fps
Аудио: AAC, 320 Kbps, 48.0 KHz, 2 channels

Отчёт MediaInfo / BDInfo

General
Complete name : F:\REMusic\Svetlana Tarabarova - Udarami v serdce.mp4
Format : MPEG-4
Format profile : Base Media / Version 2
Codec ID : mp42
File size : 435 MiB
Duration : 3mn 20s
Overall bit rate mode : Variable
Overall bit rate : 18.2 Mbps
Encoded date : UTC 2013-09-14 09:01:54
Tagged date : UTC 2013-09-14 09:01:54
©TIM : 00:00:00:00
©TSC : 25
©TSZ : 1
Video
ID : 1
Format : AVC
Format/Info : Advanced Video Codec
Format profile : Main@L4.2
Format settings, CABAC : Yes
Format settings, ReFrames : 3 frames
Codec ID : avc1
Codec ID/Info : Advanced Video Coding
Duration : 3mn 20s
Bit rate : 17.8 Mbps
Width : 1 920 pixels
Height : 1 080 pixels
Display aspect ratio : 16:9
Frame rate mode : Constant
Frame rate : 25.000 fps
Standard : PAL
Color space : YUV
Chroma subsampling : 4:2:0
Bit depth : 8 bits
Scan type : Progressive
Bits/(Pixel*Frame) : 0.344
Stream size : 427 MiB (98%)
Language : English
Encoded date : UTC 2013-09-14 09:01:54
Tagged date : UTC 2013-09-14 09:01:54
Audio
ID : 2
Format : AAC
Format/Info : Advanced Audio Codec
Format profile : LC
Codec ID : 40
Duration : 3mn 20s
Source duration : 3mn 20s
Bit rate mode : Variable
Bit rate : 317 Kbps
Maximum bit rate : 409 Kbps
Channel(s) : 2 channels
Channel positions : Front: L R
Sampling rate : 48.0 KHz
Compression mode : Lossy
Stream size : 7.60 MiB (2%)
Source stream size : 7.60 MiB (2%)
Language : English
Encoded date : UTC 2013-09-14 09:01:54
Tagged date : UTC 2013-09-14 09:01:54

Скриншоты

[torrentux.pl].t4689019.torrent 
Торрент: Зарегистрирован   [ 2013-06-24 23:21 ]
Скачать
Статус: проверено
Скачан: 5 раз
Размер: 435 MB
 
[Профиль] [ЛС]
Быстрый ответ

Имя:

         ?
Для отправки сообщений необходимо включить JavaScript
Показать сообщения:    
Ответить на тему

Текущее время: 26-Фев 04:17

Часовой пояс: UTC + 3



Вы можете начинать темы
Вы можете отвечать на сообщения
Вы не можете редактировать свои сообщения
Вы не можете удалять свои сообщения
Вы не можете голосовать в опросах
Вы не можете прикреплять файлы к сообщениям
Вы можете скачивать файлы
Яндекс.Метрика