(Contemporary Jazz) Roman Tulei Trio - Inspiration - 2011, FLAC (image+.cue), lossless

Ответить на тему
Статистика раздачи
Размер:  283 MB   |    Зарегистрирован:  3 года 6 месяцев   |    Скачан:  12 раз

Полного источника не было: 2 года 7 месяцев

   
 
Автор Сообщение

kiotox ®

Пол: Не указан

Стаж: 2 года 7 месяцев

Сообщений: 1411539

Создавать темы 22-Сен-2013 20:23

[Цитировать]

Roman Tulei Trio - Inspiration
Жанр: Contemporary Jazz
Страна-производитель диска: Switzerland
Год издания: 2011
Издатель (лейбл): Unit Records
Номер по каталогу: 4341
Страна: Switzerland
Аудиокодек: FLAC (*.flac)
Тип рипа: image+.cue
Битрейт аудио: lossless
Продолжительность: 52:35
Источник (релизер): собственный рип
Наличие сканов в содержимом раздачи: да
Треклист:
1. City Of Searches
2. M-Fonia
3. E-Atmosphere
4. Requiem
5. Deep Falling
6. Inspiration
7. Mr. Johns
8. Expromt
9. No Words

Лог создания рипа

Exact Audio Copy V1.0 beta 3 from 29. August 2011
Отчёт EAC об извлечении, выполненном 22. сентября 2013, 14:58
Roman Tulei Trio / Inspiration
Дисковод: HL-DT-STBDDVDRW CH10LS20 Adapter: 2 ID: 1
Режим чтения : Достоверность
Использование точного потока : Да
Отключение кэша аудио : Да
Использование указателей C2 : Нет
Коррекция смещения при чтении : 667
Способность читать области Lead-in и Lead-out : Нет
Заполнение пропущенных сэмплов тишиной : Да
Удаление блоков с тишиной в начале и конце : Нет
При вычислениях CRC использовались нулевые сэмплы : Да
Интерфейс : Встроенный Win32-интерфейс для Win NT/2000
Выходной формат : Пользовательский кодировщик
Выбранный битрейт : 128 kBit/s
Качество : Высокий
Добавление ID3-тега : Нет
Утилита сжатия : C:\Program Files\Exact Audio Copy\FLAC\FLAC.EXE
Дополнительные параметры : -V -8 -T "Date=%year%" -T "Genre=%genre%" %source%
TOC извлечённого CD
Трек | Старт | Длительность | Начальный сектор | Конечный сектор
---------------------------------------------------------------------
1 | 0:00.00 | 6:05.65 | 0 | 27439
2 | 6:05.65 | 6:42.11 | 27440 | 57600
3 | 12:48.01 | 4:59.64 | 57601 | 80089
4 | 17:47.65 | 4:53.36 | 80090 | 102100
5 | 22:41.26 | 8:34.03 | 102101 | 140653
6 | 31:15.29 | 5:31.40 | 140654 | 165518
7 | 36:46.69 | 3:39.16 | 165519 | 181959
8 | 40:26.10 | 6:14.22 | 181960 | 210031
9 | 46:40.32 | 5:54.57 | 210032 | 236638
Характеристики диапазона извлечения и сообщения об ошибках
Выбранный диапазон
Имя файла D:\DL\Roman Tulei Trio - Inspiration\Roman Tulei Trio - Inspiration.wav
Пиковый уровень 100.0 %
Скорость извлечения 1.8 X
Качество диапазона 100.0 %
CRC теста BC77989B
CRC копии BC77989B
Копирование... OK
Ошибок не произошло
AccurateRip: сводка
Трек 1 : извлечено точно (доверие 1) [DF1E8B6F] (AR v2)
Трек 2 : извлечено точно (доверие 1) [BFF2D41B] (AR v2)
Трек 3 : извлечено точно (доверие 1) [A6A5BEE7] (AR v2)
Трек 4 : извлечено точно (доверие 1) [8BFA909D] (AR v2)
Трек 5 : извлечено точно (доверие 1) [9CD7B106] (AR v2)
Трек 6 : извлечено точно (доверие 1) [DBFD34BE] (AR v2)
Трек 7 : извлечено точно (доверие 1) [1C80719F] (AR v2)
Трек 8 : извлечено точно (доверие 1) [FC5922C5] (AR v2)
Трек 9 : извлечено точно (доверие 1) [C821B400] (AR v2)
Все треки извлечены точно
Конец отчёта
==== Контрольная сумма отчёта 92C5A8C5BED9F2B5C469D69FC7362248CCBF6CE33B42FE9A218E5017BE386ABA ====

Лог проверки качества

-----------------------
DON'T MODIFY THIS FILE
-----------------------
PERFORMER: auCDtect Task Manager, ver. 1.6.0 RC1 build 1.6.0.1
Copyright (c) 2008-2010 y-soft. All rights reserved
http://y-soft.org
ANALYZER: auCDtect: CD records authenticity detector, version 0.8.2
Copyright (c) 2004 Oleg Berngardt. All rights reserved.
Copyright (c) 2004 Alexander Djourik. All rights reserved.
FILE: Roman Tulei Trio - Inspiration.flac
Size: 294638522 Hash: E10419053E14FFEF403C0A89C9E96BFF Accuracy: -m0
Conclusion: CDDA 99%
Signature: 4DC9F63BF44C6C2594482868341B0A67A94A64E2

Об исполнителе (группе)

Roman Tulei Trio (Швейцария)
Лидер этого молодого швейцарского коллектива, пианист и композитор Роман Тулей – уроженец юга Молдовы. В раннем возрасте он проявил интерес к фортепиано, и уже в пять лет умел играть на инструменте.
Увлечение музыкой поддерживали его родители, и уже в 16 лет Роман смог поступить в музыкальное училище в Кишиневе, а затем и Академию Искусств (отделение джазовой и эстрадной музыки). Чтобы осуществить свою главную мечту – поступить на учебу в европейскую высшую джазовую школу с хорошим именем, Роман отправился в Швейцарию поначалу как музыкант циркового оркестра. Вскоре он поступил в престижнейшую Swiss Jazz School в Берне, где его наставником по классу фортепиано был американский джазовый пианист Уильям Эванс (William Evans).
Во время учёбы в Высшей джазовой школе Роман собрал свое первое трио, в состав которого входят еще два выпускника Swiss Jazz School: контрабасист Лоренц Бейлер и барабанщик Тобиас Фридли. В прошлом году Roman Tulei Trio выпустило свой первый альбом «Inspiration» («Вдохновение»), записанный при поддержке Национального швейцарскогo радио SRF1 Zürich и вышедший на швейцарском лэйбле UNIT Records.

Состав

Roman Tulei, piano
Lorenz Beyeler, bass
Tobias Friedli, drums
[torrentux.pl].t4689022.torrent 
Торрент: Зарегистрирован   [ 2013-06-24 23:23 ]
Скачать
Статус: проверено
Скачан: 12 раз
Размер: 283 MB
 
[Профиль] [ЛС]
Показать сообщения:    
Ответить на тему

Текущее время: 17-Янв 12:04

Часовой пояс: UTC + 3



Вы не можете начинать темы
Вы не можете отвечать на сообщения
Вы не можете редактировать свои сообщения
Вы не можете удалять свои сообщения
Вы не можете голосовать в опросах
Вы не можете прикреплять файлы к сообщениям
Вы можете скачивать файлы
Яндекс.Метрика