Кругом тишина / Boven is het stil / It's All So Quiet (Нанук Леопольд / Nanouk Leopold ) [2013, Нидерланды, драма, DVDRip-AVC] VO + Original (Dutch) + Subs (Rus, Eng)

Ответить на тему
Статистика раздачи
Размер:  1.46 GB   |    Зарегистрирован:  3 года 6 месяцев   |    Скачан:  7 раз

Полного источника не было: 2 года 8 месяцев

   
 
Автор Сообщение

kiotox ®

Пол: Не указан

Стаж: 2 года 7 месяцев

Сообщений: 1411539

Создавать темы 22-Сен-2013 20:36

[Цитировать]

Кругом тишина / Boven is het stil / It's All So Quiet
Страна: Нидерланды, Германия
Жанр: Драма
Год выпуска: 2012
Продолжительность: 01:27:11
Перевод: Одноголосый закадровый (Kirill Ivanov)
Субтитры: Русские, English, SRT (в контейнере MKV)
Режиссер: Нанук Леопольд / Nanouk Leopold
В ролях: Мартин Лэйкмейер, Джероен Уиллемс, Анри Гарсен, Вим Опбраук, Лис Фисхейдак.
Описание: Хелмар живет на ферме в Голландской провинции.
Бывшая жена брата, её детишки, местный молочник, да небольшая группа односельчан - круг общения Хелмара.
Ему сложно общаться с отцом, будучи всю жизнь на положении нелюбимого сына.
Хелмару трудно одному ухаживать за отцом и работать по хозяйству. Поэтому он нанимает в помощники парня по имени Хенк.
Будучи всю жизнь под давлением отца, Хелмару сложно на что-то решиться пока отец жив...

Фильм снят по одноименной книге Gerbrand Bakker.
Неспешное европейское кино на фоне деревенской пасторали.
Качество видео: DVDRip-AVC
Формат видео: MKV
Видео: x264; 720х552@1024x432 (1,85:1); 25 fps; ~1495 kbps
Аудио 1: AC3; 48 kHz; 5.1 (Front: L C R, Side: L R, LFE); 448 kbps | VO (Русский)
Аудио 2: AC3; 48 kHz; 5.1 (Front: L C R, Side: L R, LFE); 448 kbps | Original (Dutch)
СЕМПЛ

MediaInfo

Общее
Полное имя : It's All So Quiet (2013) K_I.mkv
Формат : Matroska
Версия формата : Version 4 / Version 2
Размер файла : 1,46 Гбайт
Продолжительность : 1 ч. 27 м.
Общий поток : 2393 Кбит/сек
Название фильма : Boven Is Het Stil (It's All So Quiet) [2013] K_I
Дата кодирования : UTC 2013-09-22 18:30:47
Программа кодирования : mkvmerge v6.4.1 ('Omega Point') built on Sep 16 2013 22:05:10
Библиотека кодирования : libebml v1.3.0 + libmatroska v1.4.1
Видео
Идентификатор : 1
Формат : AVC
Формат/Информация : Advanced Video Codec
Профиль формата : High@L3.1
Параметр CABAC формата : Да
Параметр ReFrames формата : 9 кадров
Идентификатор кодека : V_MPEG4/ISO/AVC
Продолжительность : 1 ч. 27 м.
Битрейт : 1495 Кбит/сек
Ширина : 720 пикселей
Высота : 552 пикселя
Соотношение сторон : 1,85:1
Режим частоты кадров : Постоянный
Частота кадров : 25,000 кадров/сек
Цветовое пространство : YUV
Субдискретизация насыщенности : 4:2:0
Битовая глубина : 8 бит
Тип развёртки : Прогрессивная
Бит/(Пиксели*Кадры) : 0.150
Размер потока : 904 Мбайт (61%)
Библиотека кодирования : x264 core 135 r2345 f0c1c53
Настройки программы : cabac=1 / ref=9 / deblock=1:-2:-1 / analyse=0x3:0x133 / me=umh / subme=10 / psy=1 / psy_rd=1.00:0.20 / mixed_ref=1 / me_range=24 / chroma_me=1 / trellis=2 / 8x8dct=1 / cqm=0 / deadzone=21,11 / fast_pskip=1 / chroma_qp_offset=-3 / threads=6 / lookahead_threads=1 / sliced_threads=0 / nr=0 / decimate=1 / interlaced=0 / bluray_compat=0 / constrained_intra=0 / bframes=4 / b_pyramid=2 / b_adapt=2 / b_bias=0 / direct=3 / weightb=1 / open_gop=0 / weightp=2 / keyint=250 / keyint_min=25 / scenecut=40 / intra_refresh=0 / rc_lookahead=60 / rc=2pass / mbtree=1 / bitrate=1495 / ratetol=1.0 / qcomp=0.60 / qpmin=0 / qpmax=69 / qpstep=4 / cplxblur=20.0 / qblur=0.5 / ip_ratio=1.40 / aq=1:1.00
Default : Да
Forced : Нет
Аудио #1
Идентификатор : 2
Формат : AC-3
Формат/Информация : Audio Coding 3
Расширение режима : CM (complete main)
Параметр Endianness формата : Big
Идентификатор кодека : A_AC3
Продолжительность : 1 ч. 27 м.
Вид битрейта : Постоянный
Битрейт : 448 Кбит/сек
Каналы : 6 каналов
Расположение каналов : Front: L C R, Side: L R, LFE
Частота : 48,0 КГц
Битовая глубина : 16 бит
Метод сжатия : С потерями
Размер потока : 279 Мбайт (19%)
Язык : Russian
Default : Да
Forced : Нет
Аудио #2
Идентификатор : 3
Формат : AC-3
Формат/Информация : Audio Coding 3
Расширение режима : CM (complete main)
Параметр Endianness формата : Big
Идентификатор кодека : A_AC3
Продолжительность : 1 ч. 27 м.
Вид битрейта : Постоянный
Битрейт : 448 Кбит/сек
Каналы : 6 каналов
Расположение каналов : Front: L C R, Side: L R, LFE
Частота : 48,0 КГц
Битовая глубина : 16 бит
Метод сжатия : С потерями
Размер потока : 279 Мбайт (19%)
Язык : Dutch
Default : Нет
Forced : Нет
Текст #1
Идентификатор : 4
Формат : UTF-8
Идентификатор кодека : S_TEXT/UTF8
Идентификатор кодека/Информация : UTF-8 Plain Text
Язык : Russian
Default : Нет
Forced : Нет
Текст #2
Идентификатор : 5
Формат : UTF-8
Идентификатор кодека : S_TEXT/UTF8
Идентификатор кодека/Информация : UTF-8 Plain Text
Язык : English
Default : Нет
Forced : Нет

Скриншот с названием фильма

Скриншоты


Пример субтитров

1
00:01:57,000 --> 00:02:00,000
КРУГОМ ТИШИНА
2
00:03:23,600 --> 00:03:25,329
Ты собираешься двигаться.
3
00:03:26,320 --> 00:03:27,970
Я хочу остаться здесь.
4
00:05:05,840 --> 00:05:07,410
Не ударься головой.
5
00:06:07,840 --> 00:06:09,888
Я могу ходить сам.
6
00:06:10,720 --> 00:06:12,484
Нет, не можешь.
7
00:06:29,000 --> 00:06:30,411
Что ты видишь?
8
00:06:30,880 --> 00:06:32,086
Ничего.
9
00:07:40,040 --> 00:07:41,166
Хорошо.
10
00:07:42,600 --> 00:07:45,365
Ну, это не плохо.
- Могло быть и хуже.
11
00:09:30,080 --> 00:09:32,447
В чем дело?
- Ничего.
12
00:09:33,440 --> 00:09:34,885
Так почему ты звал?
13
00:09:35,720 --> 00:09:37,688
Вызвать врача.
- Нет.
14
00:09:39,120 --> 00:09:40,770
Я хочу встать с кровати.
15
00:10:27,800 --> 00:10:29,006
Садись.
16
00:10:33,360 --> 00:10:35,044
Держись крепче.
17
00:10:35,280 --> 00:10:36,406
Держись крепче.
18
00:10:38,200 --> 00:10:39,531
Обеими руками.
19
00:10:41,120 --> 00:10:43,088
Ада была здесь?
- Да.
20
00:10:45,120 --> 00:10:47,282
Почему она не поднялась наверх?
[torrentux.pl].t4689034.torrent 
Торрент: Зарегистрирован   [ 2013-06-24 23:36 ]
Скачать
Статус: проверено
Скачан: 7 раз
Размер: 1.46 GB
 
[Профиль] [ЛС]
Быстрый ответ

Имя:

         ?
Для отправки сообщений необходимо включить JavaScript
Показать сообщения:    
Ответить на тему

Текущее время: 17-Янв 12:04

Часовой пояс: UTC + 3



Вы можете начинать темы
Вы можете отвечать на сообщения
Вы не можете редактировать свои сообщения
Вы не можете удалять свои сообщения
Вы не можете голосовать в опросах
Вы не можете прикреплять файлы к сообщениям
Вы можете скачивать файлы
Яндекс.Метрика