ДОстояние РЕспублики - Ирина Аллегрова [2013 г., Pop, HDTV 1080i]

Ответить на тему
Статистика раздачи
Размер:  8.65 GB   |    Зарегистрирован:  3 года 6 месяцев   |    Скачан:  7 раз

Полного источника не было: 2 года 8 месяцев

   
 
Автор Сообщение

kiotox ®

Пол: Не указан

Стаж: 2 года 7 месяцев

Сообщений: 1411539

Создавать темы 22-Сен-2013 20:36

[Цитировать]

ДОстояние РЕспублики - Ирина Аллегрова
Страна: Россия
Жанр: Pop
Продолжительность: 01:48:16
Год выпуска: 2013 г.
Ведущие: Юрий Николаев и Дмитрий Шепелев
Описание: Новый сезон «ДОстояния РЕспублики» будет посвящен не эпохам, а людям. Людям, создавшим любимые песни. И если победителей в прошлом сезоне определяли эксперты от младшего и старшего поколений жюри, то теперь выбор сделают телезрители. Именно им предстоит выбрать лучшую песню каждого из героев «Достояния». Герой программы расскажет самые интересные истории, связанные со своими песнями, отрецензирует их новое исполнение и, конечно, сам выйдет на сцену, чтобы спеть несколько хитов. И ещe о новинках. У нас появилась «свободная трибуна», состоящая из простых людей и приглашeнных журналистов. У них есть своe мнение и, часто, не самое лицеприятное. Тем интереснее полемика между ними и друзьями главного героя «ДоРе».
В этом выпуске: Говорят, что звезд на российской эстраде слишком много, а вот артистов мало. Каждая песня этой артистки – это маленькая пьеса, и она живет своим маленьким театром. Доверие зрителей завоевать непросто – для этого каждое слово в песне должно быть правдой. Чтобы добиться этого, певица работает в своей домашней студии сутками. Героем программы "ДОстояние РЕпублики" станет Ирина Аллегрова. В программе примут участие друзья, коллеги близкие Ирины Аллегровой. А она расскажет интересные истории, связанные с любимыми песнями, отрецензирует их новое исполнение и, конечно, сам выйдет на сцену, чтобы спеть несколько хитов. В программе прозвучат: "Свадебные цветы", "День рождения", "Императрица", "Младший лейтенант", "Не верю", "Привет, Андрей", "Незаконченный роман", "Странник", "Угонщица", "Фотография", "Я тучи разведу руками", "Миражи" Звучные имена Аллегрова и Шер скрывают, по сути, одну и ту же армянскую фамилию. Если бы отец Ирины не решил однажды взять себе псевдоним Аллегров, то Ирина была бы Саркисовой. В свою очередь Шер, выбери она более скромный жизненный путь, осталась бы Шерилин Саркисян.
Треклист:
01. Ирина Аллегрова - Свадебные цветы
02. Ирина Аллегрова и Дима Билан - Незаконченный роман
03. Любовь Успенская - Императрица
04. Филипп Киркоров - Миражи
05. Ирина Дубцова - Младший лейтенант
06. Глюкоза - Странник
07. Наташа Королева - Привет, Андрей
08. Анита Цой - Угонщица
09. Татьяна Буланова - Фотография
10. Александр Иванов и Ольга Кормухина - Не верю
11. Юлия Савичева - Я тучи разведу руками
12. Ирина Аллегрова и Иванушки international - День рождения
Источник: собственный рип
Доп. информация: Релиз -

Рип чистый. Без посторонних надписей. Выкладывается как есть.
Качество: HDTV 1080i
Контейнер: TS
Видео кодек: AVC
Аудио кодек: MP2
Видео: 1920x1080 (16:9) 25.000 fps 10.7 Mbps, 0.206 bit/pixel
Аудио: MPEG Audio 48000Hz stereo 192 Кбит/сек

Скриншоты


Скринлист

MI

General
ID : 1 (0x1)
Complete name : D:\Выкладка\ДОстояние РЕспублики - Ирина Аллегрова (2013, Pop, HDTV 1080i) (MYDIMKA).ts
Format : MPEG-TS
File size : 8.65 GiB
Duration : 1h 48mn
Overall bit rate mode : Variable
Overall bit rate : 11.4 Mbps
Video
ID : 305 (0x131)
Menu ID : 1 (0x1)
Format : AVC
Format/Info : Advanced Video Codec
Format profile : High@L4.0
Format settings, CABAC : Yes
Format settings, ReFrames : 3 frames
Codec ID : 27
Duration : 1h 48mn
Bit rate : 10.7 Mbps
Width : 1 920 pixels
Height : 1 080 pixels
Display aspect ratio : 16:9
Frame rate : 25.000 fps
Standard : Component
Color space : YUV
Chroma subsampling : 4:2:0
Bit depth : 8 bits
Scan type : Interlaced
Scan order : Top Field First
Bits/(Pixel*Frame) : 0.206
Stream size : 8.07 GiB (93%)
Color primaries : BT.709
Transfer characteristics : BT.709
Matrix coefficients : BT.709
Audio
ID : 405 (0x195)
Menu ID : 1 (0x1)
Format : MPEG Audio
Format version : Version 1
Format profile : Layer 2
Codec ID : 3
Duration : 1h 48mn
Bit rate mode : Constant
Bit rate : 192 Kbps
Channel count : 2 channels
Sampling rate : 48.0 KHz
Compression mode : Lossy
Stream size : 149 MiB (2%)
Language : English
[torrentux.pl].t4689035.torrent 
Торрент: Зарегистрирован   [ 2013-06-24 23:36 ]
Скачать
Статус: проверено
Скачан: 7 раз
Размер: 8.65 GB
 
[Профиль] [ЛС]
Быстрый ответ

Имя:

         ?
Для отправки сообщений необходимо включить JavaScript
Показать сообщения:    
Ответить на тему

Текущее время: 17-Янв 12:07

Часовой пояс: UTC + 3



Вы можете начинать темы
Вы можете отвечать на сообщения
Вы не можете редактировать свои сообщения
Вы не можете удалять свои сообщения
Вы не можете голосовать в опросах
Вы не можете прикреплять файлы к сообщениям
Вы можете скачивать файлы
Яндекс.Метрика