(Contemporary Jazz) Roland Neffe - Vibes Beyond - 2009, FLAC (image+.cue), lossless

Ответить на тему
Статистика раздачи
Размер:  264 MB   |    Зарегистрирован:  3 года 8 месяцев   |    Скачан:  10 раз

Полного источника не было: 2 года 8 месяцев

   
 
Автор Сообщение

kiotox ®

Пол: Не указан

Стаж: 2 года 8 месяцев

Сообщений: 1411539

Создавать темы 22-Сен-2013 20:43

[Цитировать]

Roland Neffe's Vibes Beyond
Жанр: Contemporary Jazz
Страна-производитель диска: Austria
Год издания: 2009
Издатель (лейбл): JazzHausMusik
Номер по каталогу: 183
Страна: Austria
Аудиокодек: FLAC (*.flac)
Тип рипа: image+.cue
Битрейт аудио: lossless
Продолжительность: 48:38
Источник (релизер): собственный рип
Наличие сканов в содержимом раздачи: да
Треклист:
1. Fluxx
2. Speak
3. Preface
4. Sound of Äther
5. Line Of Restlessness
6. Heavy Line
7. so so
8. Visionary
9. Grey Shortcut
10. Escape from Nomansland

Лог создания рипа

Exact Audio Copy V1.0 beta 3 from 29. August 2011
Отчёт EAC об извлечении, выполненном 22. сентября 2013, 13:54
Roland Neffe / Vibes Beyond
Дисковод: HL-DT-STBDDVDRW CH10LS20 Adapter: 2 ID: 1
Режим чтения : Достоверность
Использование точного потока : Да
Отключение кэша аудио : Да
Использование указателей C2 : Нет
Коррекция смещения при чтении : 667
Способность читать области Lead-in и Lead-out : Нет
Заполнение пропущенных сэмплов тишиной : Да
Удаление блоков с тишиной в начале и конце : Нет
При вычислениях CRC использовались нулевые сэмплы : Да
Интерфейс : Встроенный Win32-интерфейс для Win NT/2000
Выходной формат : Пользовательский кодировщик
Выбранный битрейт : 128 kBit/s
Качество : Высокий
Добавление ID3-тега : Нет
Утилита сжатия : C:\Program Files\Exact Audio Copy\FLAC\FLAC.EXE
Дополнительные параметры : -V -8 -T "Date=%year%" -T "Genre=%genre%" %source%
TOC извлечённого CD
Трек | Старт | Длительность | Начальный сектор | Конечный сектор
---------------------------------------------------------------------
1 | 0:00.00 | 6:11.68 | 0 | 27892
2 | 6:11.68 | 6:36.69 | 27893 | 57661
3 | 12:48.62 | 1:56.06 | 57662 | 66367
4 | 14:44.68 | 5:33.21 | 66368 | 91363
5 | 20:18.14 | 2:15.32 | 91364 | 101520
6 | 22:33.46 | 8:25.73 | 101521 | 139468
7 | 30:59.44 | 1:16.61 | 139469 | 145229
8 | 32:16.30 | 7:49.05 | 145230 | 180409
9 | 40:05.35 | 3:12.34 | 180410 | 194843
10 | 43:17.69 | 5:20.05 | 194844 | 218848
Характеристики диапазона извлечения и сообщения об ошибках
Выбранный диапазон
Имя файла D:\DL\Roland Neffe - Vibes Beyond\Roland Neffe - Vibes Beyond.wav
Пиковый уровень 98.7 %
Скорость извлечения 1.8 X
Качество диапазона 99.9 %
CRC теста 0F4136B7
CRC копии 0F4136B7
Копирование... OK
Ошибок не произошло
AccurateRip: сводка
Трек 1 : извлечено точно (доверие 1) [C6EBC6E6] (AR v2)
Трек 2 : извлечено точно (доверие 1) [88CAE233] (AR v2)
Трек 3 : извлечено точно (доверие 1) [C9E0F793] (AR v2)
Трек 4 : извлечено точно (доверие 1) [3FB5FCD2] (AR v2)
Трек 5 : извлечено точно (доверие 1) [9D6468BE] (AR v2)
Трек 6 : извлечено точно (доверие 1) [77BE1E92] (AR v2)
Трек 7 : извлечено точно (доверие 1) [3D73AC39] (AR v2)
Трек 8 : извлечено точно (доверие 1) [269131E5] (AR v2)
Трек 9 : извлечено точно (доверие 1) [1357721C] (AR v2)
Трек 10 : извлечено точно (доверие 1) [63B7E432] (AR v2)
Все треки извлечены точно
Конец отчёта
==== Контрольная сумма отчёта 9640F810EAD92EA7E2CABD185813843777D5B0A147C3B7FAA2592D41906EAC27 ====

Лог проверки качества

-----------------------
DON'T MODIFY THIS FILE
-----------------------
PERFORMER: auCDtect Task Manager, ver. 1.6.0 RC1 build 1.6.0.1
Copyright (c) 2008-2010 y-soft. All rights reserved
http://y-soft.org
ANALYZER: auCDtect: CD records authenticity detector, version 0.8.2
Copyright (c) 2004 Oleg Berngardt. All rights reserved.
Copyright (c) 2004 Alexander Djourik. All rights reserved.
FILE: Roland Neffe - Vibes Beyond.flac
Size: 273319631 Hash: 6AD055CE41563D2012AB8E7A527FE7DD Accuracy: -m0
Conclusion: CDDA 100%
Signature: 65EF346F0094D475DC47435F1BB54E3CBA7320D7

Об альбоме

Roland Neffes "Vibes Beyond" ist das Projekt eines der wichtigsten Vibraphonisten des europäischen Jazz: eine Symbiose aus avantgardistischen Klängen und erdigen Grooves.
Den Klang dieses neu formierten Powertrios prägen die Kompositionen von Roland Neffe, die er schon seit seinen frühen Triobesetzungen konsequent weiter entwickelt hat und die unmittelbar eine eigene Handschrift erkennen lassen. Ein Schmelztigel verschiedener aktueller Musikrichtungen - eine Symbiose aus avantgardistischen Klängen und erdigen Grooves.
Musik die sich bewußt über Grenzen hinwegsetzt und dennoch eindeutig dem Jazz zuzuordnen ist.

Состав

Roland Neffe, vibraphone, marimba, composition
Achim Tang, bass
Reinhardt Winkler, drums
[torrentux.pl].t4689038.torrent 
Торрент: Зарегистрирован   [ 2013-06-24 23:43 ]
Скачать
Статус: проверено
Скачан: 10 раз
Размер: 264 MB
 
[Профиль] [ЛС]
Показать сообщения:    
Ответить на тему

Текущее время: 26-Фев 04:17

Часовой пояс: UTC + 3



Вы не можете начинать темы
Вы не можете отвечать на сообщения
Вы не можете редактировать свои сообщения
Вы не можете удалять свои сообщения
Вы не можете голосовать в опросах
Вы не можете прикреплять файлы к сообщениям
Вы можете скачивать файлы
Яндекс.Метрика