Последняя карета / Последний вагон / The Last Wagon / L'ultima carrozzella (Марио Маттоли / Mario Mattoli) [1943, Италия, Комедия, DVDRip] VO (SATKUR) + Original Ita

Ответить на тему
Статистика раздачи
Размер:  1.09 GB   |    Зарегистрирован:  3 года 8 месяцев   |    Скачан:  1 раз

Полного источника не было: 1 год 1 месяц

   
 
Автор Сообщение

kiotox ®

Пол: Не указан

Стаж: 2 года 8 месяцев

Сообщений: 1411539

Создавать темы 22-Сен-2013 21:54

[Цитировать]

Последняя карета / Последний вагон / The Last Wagon / L'ultima carrozzella
Страна: Италия
Жанр: Комедия
Год выпуска: 1943
Продолжительность: 01:25:36
Перевод: Одноголосый закадровый SATKUR
Cубтитры: нет
Оригинальная аудиодорожка: итальянский
Режиссер: Марио Маттоли / Mario Mattoli
В ролях: Альдо Фабрици, Анна Маньяни, Анита Дуранте, Элиде Спада, Энцо Фьермонте, Аристиде Гарбини, Лауро Гаццоло, Тино Скотти, Нандо Бруно, Леопольдо Валентини
Описание: Римский извозчик Тото не хочет, чтобы его древнюю работу вытеснили автомобили и чтобы его дочь Наннарелла встречалась с таксистом Роберто. Но именно Роберто его спасает, когда Тото попадает в беду... Фильм "Последняя карета" - комедия фашистской эпохи итальянского кино. Альдо Фабрици и Анна Маньяни впоследствии появятся вместе в шедевре неореалистичного кино "Рим открытый город".
Доп. информация: Озвучено по субтитрам cally-jones
Сэмпл: http://multi-up.com/905911
Качество видео: DVDRip
Формат видео: AVI
Видео: XVID, 8 бит, 672х480, 25 кадр/сек, 1428 Кбит/сек, 0.177 bit/pixel
Аудио 1: AC3, 48.0 KHz, 2 ch, 192 Kbps, CBR - русский одноголосый
Аудио 2: AC3, 48.0 KHz, 2 ch, 192 Kbps, CBR - оригинальный итальянский

MediaInfo

Общее
Полное имя : D:\FILM\F-2013\Disk-07\L'Ultima.Carrozzella.1943.Ita.[vo.satkur+ita].AC3.Rus\L'Ultima.Carrozzella.1943.Ita.[vo.satkur+ita].AC3.Rus.avi
Формат : AVI
Формат/Информация : Audio Video Interleave
Размер файла : 1,09 Гбайт
Продолжительность : 1 ч. 25 м.
Общий поток : 1827 Кбит/сек
Программа кодирования : VirtualDubModRus 1.5.10.2 (build 2542/release)
Библиотека кодирования : VirtualDubMod build 2542/release
Видео
Идентификатор : 0
Формат : MPEG-4 Visual
Профиль формата : Advanced Simple@L5
Параметр BVOP формата : 2
Параметр QPel формата : Нет
Параметр GMC формата : Без точки перехода
Параметр матрицы формата : Default (H.263)
Идентификатор кодека : XVID
Идентификатор кодека/Подсказка : XviD
Продолжительность : 1 ч. 25 м.
Битрейт : 1428 Кбит/сек
Ширина : 672 пикселя
Высота : 480 пикселей
Соотношение сторон : 1,400
Частота кадров : 25,000 кадров/сек
Цветовое пространство : YUV
Субдискретизация насыщенности : 4:2:0
Битовая глубина : 8 бит
Тип развёртки : Прогрессивная
Метод сжатия : С потерями
Бит/(Пиксели*Кадры) : 0.177
Размер потока : 875 Мбайт (78%)
Библиотека кодирования : XviD 1.2.1 (UTC 2008-12-04)
Аудио #1
Идентификатор : 1
Формат : AC-3
Формат/Информация : Audio Coding 3
Расширение режима : CM (complete main)
Параметр Endianness формата : Big
Идентификатор кодека : 2000
Продолжительность : 1 ч. 25 м.
Вид битрейта : Постоянный
Битрейт : 192 Кбит/сек
Каналы : 2 канала
Расположение каналов : Front: L R
Частота : 48,0 КГц
Битовая глубина : 16 бит
Метод сжатия : С потерями
Размер потока : 118 Мбайт (11%)
Выравнивание : Разделение по промежуткам
Продолжительность промежутка : 40 мс. (1,00 видеокадр)
Время предзагрузки промежутка : 500 мс.
Аудио #2
Идентификатор : 2
Формат : AC-3
Формат/Информация : Audio Coding 3
Расширение режима : CM (complete main)
Параметр Endianness формата : Big
Идентификатор кодека : 2000
Продолжительность : 1 ч. 25 м.
Вид битрейта : Постоянный
Битрейт : 192 Кбит/сек
Каналы : 2 канала
Расположение каналов : Front: L R
Частота : 48,0 КГц
Битовая глубина : 16 бит
Метод сжатия : С потерями
Размер потока : 118 Мбайт (11%)
Выравнивание : Разделение по промежуткам
Продолжительность промежутка : 40 мс. (1,00 видеокадр)
Время предзагрузки промежутка : 500 мс.

Скриншот c названием фильма

Скриншоты

[torrentux.pl].t4689077.torrent 
Торрент: Зарегистрирован   [ 2013-06-25 00:54 ]
Скачать
Статус: проверено
Скачан: 1 раз
Размер: 1.09 GB
 
[Профиль] [ЛС]

Гость

Пол: Не указан

Создавать темы 24-Сен-2014 15:28 (спустя 1 год)

[Цитировать]

водоплавающая птица
 
Быстрый ответ

Имя:

         ?
Для отправки сообщений необходимо включить JavaScript
Показать сообщения:    
Ответить на тему

Текущее время: 27-Фев 18:57

Часовой пояс: UTC + 3



Вы можете начинать темы
Вы можете отвечать на сообщения
Вы не можете редактировать свои сообщения
Вы не можете удалять свои сообщения
Вы не можете голосовать в опросах
Вы не можете прикреплять файлы к сообщениям
Вы можете скачивать файлы
Яндекс.Метрика